Начать новую темуЭта тема закрыта, вы не можете редактировать и оставлять сообщения в ней.  [ Сообщений: 11 ] 
Сообщения
 Добавлено: 2013-04-01 15:48
Стаж: 8 лет 9 месяцев
Сообщений: 71
Спасибок: 119
Информация о продавце
Населённый пункт(ы): Нижний Новгород
Контактная информация:
ЛС
Доставка осуществляется: покупателем (самовывоз)
Свернуть

Наименование товара: Миникамера MiniDV (аналог MD80) персональный регистратор
Тип сделки: продажа или обмен
Цена: 400 руб.
Полный комплект: да [BOX (крепления, зарядник, чехол )]
Торг: уместен
Состояние: Абсолютно новый (не использовался)
Дополнительная информация о товаре:
- Матрица: 300,000 CMOS
- Видео: AVI (MJPEG) (720*480 (resample from 640*480), 1 мин = 65-100 МБ, 1 ГБ = 13 мин)
- Карта памяти: TF/Mirco SD до 16GB
- Скорость чтения/записи: max 9/6 Мбайт/с
- USB интерфейс: USB 1.1/2.0
- аккумулятор: LiPol 200 мА/ч
- Время работы: 60 мин
- Зарядка от USB или электросети 220В
- Размеры: 57 x 22 x 20 мм
Свернуть

Под циклическую прошивку прошить не смог.
Аккумулятора хватает где-то на 50-60 минут.
Требовательна к карте памяти, класс не ниже 6 (иначе задержки записи)
Работает как веб-камера и кард-ридер микроСД
Пригодится моделистам для установки на р/у модели.
Или для экспериментов

Фото:

Изображение

Свернуть



Последний раз редактировалось mishack 2013-05-16 17:18, всего редактировалось 1 раз.
Не в сети
Профиль  
 Добавлено: 2013-04-02 15:59 (спустя 1 день)
Аватара пользователя
Стаж: 9 лет 5 месяцев
Возраст: 28
Сообщений: 5605
Спасибок: 380
Лайков: 76
поподробнее пожалуйста: что за циклическая прошивка и можно ли вообще пользоваться девайсом?
а на что обмен интересен?)
Не в сети
Профиль  
 Добавлено: 2013-04-02 17:02 (спустя 1 час 3 минуты)
Стаж: 8 лет 9 месяцев
Сообщений: 71
Спасибок: 119
Циклическая запись-это когда старые записи затираются новыми, при достижении определённого пространства на носителе.
Без этой возможности сей девайс бесполезен как регистратор "длительного использования", кончается место-прекращается запись.
Я смог додуматься только для применеия моделистами, где время использования ограничено и не превысит 1 часа.
Не в сети
Профиль  
 Добавлено: 2013-04-02 20:13 (спустя 3 часа)
Аватара пользователя
Стаж: 9 лет 5 месяцев
Возраст: 28
Сообщений: 5605
Спасибок: 380
Лайков: 76
хорошо) а обмен на что? и сколько весит в граммах?)
Не в сети
Профиль  
 Добавлено: 2013-04-16 09:24 (спустя 13 дней)
Стаж: 8 лет 9 месяцев
Сообщений: 71
Спасибок: 119
преимущественно, хотелось бы обменять на деньги.
40 гр. масса.
Не в сети
Профиль  
 Добавлено: 2013-04-16 12:23 (спустя 2 часа 59 минут)
Пользователь забанен
Стаж: 4 года 6 месяцев
Сообщений: 74
Лайков: 1
какая-то она огромная, даже для моделистов
где пример видео записи?
Не в сети
Профиль  
 Добавлено: 2013-04-22 15:17 (спустя 6 дней)
Стаж: 8 лет 9 месяцев
Сообщений: 71
Спасибок: 119
Пример видео
http://files.mail.ru/37A63D106CE347D6893CC545A4D19D9D
Характеристики видео
Cкрытый текст
General
Complete name : I:\DCIM\100MEDIA\SUNP0008.avi
Format : AVI
Format/Info : Audio Video Interleave
File size : 13.2 MiB
Duration : 18s 467ms
Overall bit rate : 6 005 Kbps
Director : Generplus
Original source form/Distributed : Generplus
Recorded date : 2010-06-29
Writing library : E-
Copyright : Generplus

Video
ID : 0
Format : M-JPEG
Codec ID : MJPG
Duration : 18s 467ms
Bit rate : 7 162 Kbps
Width : 720 pixels
Height : 480 pixels
Display aspect ratio : 1.500
Frame rate : 30.000 fps
Standard : NTSC
Resolution : 24 bits
Bits/(Pixel*Frame) : 0.691
Stream size : 15.8 MiB

Audio
Format : PCM
Format settings, Endianness : Little
Format settings, Sign : Unsigned
Codec ID : 1
Codec ID/Hint : Microsoft
Duration : 18s 460ms
Bit rate mode : Constant
Bit rate : 352.8 Kbps
Channel(s) : 1 channel
Sampling rate : 22.05 KHz
Resolution : 16 bits
Stream size : 795 KiB (6%)
Interleave, duration : 348 ms (10.45 video frames)

Свернуть
Не в сети
Профиль  
 Добавлено: 2013-07-08 09:17 (спустя 2 месяца 15 дней)
Стаж: 8 лет 9 месяцев
Сообщений: 71
Спасибок: 119
Может работать веб-камерой. В комплекте набор различных креплений и зарядник.
Не в сети
Профиль  
 Добавлено: 2013-08-06 22:29 (спустя 29 дней)
Стаж: 8 лет 9 месяцев
Сообщений: 71
Спасибок: 119
up
Не в сети
Профиль  
 Добавлено: 2013-09-03 10:11 (спустя 27 дней)
Аватара пользователя
Стаж: 4 года 1 месяц
Сообщений: 175
Написал в лс
_________________
Изображение
+79503473634
Не в сети
Профиль  
 Добавлено: 2014-02-04 09:57 (спустя 5 месяцев)
Стаж: 8 лет 9 месяцев
Сообщений: 71
Спасибок: 119
up


Тема поднималась пользователем mishack 2014-02-04 09:57.
Не в сети
Профиль  
Начать новую темуЭта тема закрыта, вы не можете редактировать и оставлять сообщения в ней.  [ Сообщений: 11 ] 
Вы не можете начинать темы
Вы не можете отвечать на сообщения
Вы не можете редактировать свои сообщения
Вы не можете удалять свои сообщения