Правила форума

Здесь находятся раздачи, на которых не было полного источника (сида) более месяца.
Вы можете вернуть релиз в соответствующий раздел, для этого напишите нам в специальной теме и встаньте на раздачу.
Новые релизы, повторяющие релизы в архиве, повторами не считаются.
Начать новую темуОтветить на тему  [ Сообщений: 2 ] 
Сообщения
 Добавлено: 2012-02-11 18:29
Книголюб
Аватара пользователя
Стаж: 7 лет 2 месяца
Сообщений: 2823
Спасибок: 48823
Лайков: 73
100 миллионов евро
Les Tuche

Изображение


Год выпуска: 2011
Страна: Франция
Жанр: комедия
Продолжительность: 01:34:01
Перевод: Профессиональный (одноголосый закадровый)

Режиссёр: Оливье Барру
В ролях: Жан-Поль Рув, Изабель Нанти, Клэр Надо, Тео Фернандез, Сара Штерн, Пьер Лоттинб, Дэвид Камменос, Карина Теста
Описание: История хорошо знакомой всей округе семьи Туше, которая постоянно стеснена в средствах, но никогда не жалуется на судьбу и находит своё счастье в работе. Они всегда бедны, но счастливы.

Неожиданно на них сваливается огромное богатство, которое влечёт за собой большие перемены в их жизни. Смогут ли они изменить свои привычки и жизненный уклад, продолжая оставаться самими собой?
Мировая премьера: 1 июля 2011
Премьера в России: 22 марта 2012, «Каскад»
Изображение 5.556 123

Качество: BQRip 720p.]
Формат: MKV
Видео кодек: H.264
Аудио кодек: DTS
Видео: 11280 x 544 (2,35:1), 5141 Kbps, 24,000 fps, 0.299 bpp
Аудио #1: Russian: 384 kb/s (6 ch)
Аудио #2: French: 48 kHz, 1510 kbps
MediaInfo
General
Unique ID : 218405336725955609340307241714196177239 (0xA44F567A27E23B96AF30F9E1A1486157)
Complete name : D:\Les Tuche.mkv
Format : Matroska
Format version : Version 2
File size : 4.62 GiB
Duration : 1h 34mn
Overall bit rate : 7 034 Kbps
Encoded date : UTC 2012-02-06 08:14:50
Writing application : mkvmerge v5.2.1 ('A Far Off Place') built on Jan 2 2012 23:21:10
Writing library : libebml v1.2.3 + libmatroska v1.3.0

Video
ID : 1
Format : AVC
Format/Info : Advanced Video Codec
Format profile : High@L4.1
Format settings, CABAC : Yes
Format settings, ReFrames : 5 frames
Codec ID : V_MPEG4/ISO/AVC
Duration : 1h 34mn
Bit rate : 5 141 Kbps
Width : 1 280 pixels
Height : 544 pixels
Display aspect ratio : 2.35:1
Frame rate : 24.000 fps
Color space : YUV
Chroma subsampling : 4:2:0
Bit depth : 8 bits
Scan type : Progressive
Bits/(Pixel*Frame) : 0.308
Stream size : 3.28 GiB (71%)
Writing library : x264 core 119 r2106 07efeb4
Encoding settings : cabac=1 / ref=5 / deblock=1:0:0 / analyse=0x3:0x113 / me=umh / subme=7 / psy=1 / psy_rd=1.00:0.15 / mixed_ref=1 / me_range=16 / chroma_me=1 / trellis=1 / 8x8dct=1 / cqm=0 / deadzone=21,11 / fast_pskip=0 / chroma_qp_offset=-3 / threads=12 / sliced_threads=0 / nr=0 / decimate=1 / interlaced=0 / bluray_compat=0 / constrained_intra=0 / bframes=3 / b_pyramid=2 / b_adapt=1 / b_bias=0 / direct=1 / weightb=1 / open_gop=0 / weightp=2 / keyint=250 / keyint_min=24 / scenecut=40 / intra_refresh=0 / rc_lookahead=40 / rc=2pass / mbtree=1 / bitrate=5141 / ratetol=1.0 / qcomp=0.60 / qpmin=0 / qpmax=69 / qpstep=4 / cplxblur=20.0 / qblur=0.5 / ip_ratio=1.40 / aq=1:1.00
Language : English
Default : No
Forced : No

Audio #1
ID : 2
Format : AC-3
Format/Info : Audio Coding 3
Mode extension : CM (complete main)
Codec ID : A_AC3
Duration : 1h 34mn
Bit rate mode : Constant
Bit rate : 384 Kbps
Channel(s) : 6 channels
Channel positions : Front: L C R, Side: L R, LFE
Sampling rate : 48.0 KHz
Bit depth : 16 bits
Compression mode : Lossy
Stream size : 258 MiB (5%)
Title : RUS AC3
Language : Russian
Default : Yes
Forced : No

Audio #2
ID : 3
Format : DTS
Format/Info : Digital Theater Systems
Codec ID : A_DTS
Duration : 1h 34mn
Bit rate mode : Constant
Bit rate : 1 510 Kbps
Channel(s) : 6 channels
Channel positions : Front: L C R, Side: L R, LFE
Sampling rate : 48.0 KHz
Bit depth : 24 bits
Compression mode : Lossy
Delay relative to video : 11ms
Stream size : 1 015 MiB (21%)
Title : French DTS 1509kbps
Language : French
Default : No
Forced : No

Text #1
ID : 4
Format : UTF-8
Codec ID : S_TEXT/UTF8
Codec ID/Info : UTF-8 Plain Text
Title : ENG Sub
Language : English
Default : No
Forced : No

Text #2
ID : 5
Format : UTF-8
Codec ID : S_TEXT/UTF8
Codec ID/Info : UTF-8 Plain Text
Title : FRE Sub
Language : French
Default : No
Forced : No

Menu
00:00:00.000 : en:00:00:00.000
00:08:49.250 : en:00:08:49.250
00:18:43.792 : en:00:18:43.792
00:26:41.458 : en:00:26:41.458
00:37:36.750 : en:00:37:36.750
00:49:19.333 : en:00:49:19.333
00:59:30.625 : en:00:59:30.625
01:09:45.458 : en:01:09:45.458
01:22:57.458 : en:01:22:57.458


Свернуть

Скриншоты
Изображение
Изображение
Изображение
Изображение
Свернуть
Не в сети
Профиль  
 Добавлено: 2012-02-11 21:57 (спустя 3 часа)
Модератор
Аватара пользователя
Стаж: 6 лет 10 месяцев
Возраст: 33
Сообщений: 5908
Спасибок: 61241
Лайков: 3540
Помогу раздать :)
_________________
ИзображениеИзображение Изображение
Изображение
Не в сети
Профиль  
Начать новую темуОтветить на тему  [ Сообщений: 2 ] 
Вы не можете начинать темы
Вы не можете отвечать на сообщения
Вы не можете редактировать свои сообщения
Вы не можете удалять свои сообщения