Правила форума

Здесь находятся раздачи, на которых не было полного источника (сида) более месяца.
Вы можете вернуть релиз в соответствующий раздел, для этого напишите нам в специальной теме и встаньте на раздачу.
Новые релизы, повторяющие релизы в архиве, повторами не считаются.
Начать новую темуОтветить на тему  [ 1 сообщение ] 
Сообщения
 Добавлено: 2014-02-18 16:36
Top-releaser
Аватара пользователя
Стаж: 8 лет 9 месяцев
Сообщений: 479
Спасибок: 20187
Лайков: 16
Изображение

12 лет рабства

12 Years a Slave


«The extraordinary true story of Solomon Northup»

Год выпуска: 2013
Страна: США, Великобритания; New Regency Pictures , Plan B Entertainment, River Road Entertainment, Summit Entertainment
Жанр: Драма, биография, история
Продолжительность: 02:14:00
Перевод: Профессиональный (дублированный) [iTunes]

Режиссёр: Стив МакКуин

В ролях: Чиветел Эджиофор, Майкл Фассбендер, Бенедикт Камбербэтч, Пол Дано, Пол Джаматти, Лупита Нионго, Сара Полсон, Брэд Питт, Элфри Вудард, Кувенжане Уоллис

Описание: Соломон Нортап был женатым и образованным мужчиной, который жил и работал в Нью-Йорке, когда два человека однажды предложили ему привлекательную работу в Вашингтоне. По прибытии он был похищен, стал рабом и влачил жалкую жизнь, переходя от одного хозяина к другому.

Качество: WEB-DL 720p
Формат: MKV

Видео: AVC at 4041 Кбит/сек, 1280 x 720 (1.778) at 24.000 fps
Аудио: AC-3 at 384 Кбит/сек, канала, 48,0 КГц [Дубляж]
Изображение
MediaInfo

Общее
Уникальный идентификатор : 242812268472413452698121670730448536580 (0xB6ABF11E7EA12B4F9AB877D1721A8404)
Полное имя : C:\Users\Домашний\Desktop\12.Let.Rabstva.2013.WEBDL.720p.mkv
Формат : Matroska
Версия формата : Version 2
Размер файла : 4,23 Гбайт
Продолжительность : 2 ч. 13 м.
Общий поток : 4514 Кбит/сек
Дата кодирования : UTC 2014-02-17 20:11:53
Программа кодирования : mkvmerge v5.8.0 ('No Sleep / Pillow') built on Sep 2 2012 15:37:04
Библиотека кодирования : libebml v1.2.3 + libmatroska v1.3.0

Видео
Идентификатор : 1
Формат : AVC
Формат/Информация : Advanced Video Codec
Профиль формата : High@L3.1
Параметр CABAC формата : Нет
Параметр ReFrames формата : 2 кадра
Идентификатор кодека : V_MPEG4/ISO/AVC
Продолжительность : 2 ч. 13 м.
Битрейт : 4041 Кбит/сек
Ширина : 1280 пикселей
Высота : 720 пикселей
Соотношение сторон : 16:9
Режим частоты кадров : Постоянный
Частота кадров : 24,000 кадра/сек
Цветовое пространство : YUV
Субдискретизация насыщенности : 4:2:0
Битовая глубина : 8 бит
Тип развёртки : Прогрессивная
Бит/(Пиксели*Кадры) : 0.183
Размер потока : 3,78 Гбайт (90%)
Язык : English
Default : Да
Forced : Нет
Основные цвета : BT.709
Характеристики трансфера : BT.709
Коэффициенты матрицы : BT.709

Аудио
Идентификатор : 2
Формат : AC-3
Формат/Информация : Audio Coding 3
Расширение режима : CM (complete main)
Параметр Endianness формата : Big
Идентификатор кодека : A_AC3
Продолжительность : 2 ч. 13 м.
Вид битрейта : Постоянный
Битрейт : 384 Кбит/сек
Каналы : 6 каналов
Расположение каналов : Front: L C R, Side: L R, LFE
Частота : 48,0 КГц
Битовая глубина : 16 бит
Метод сжатия : С потерями
Размер потока : 368 Мбайт (9%)
Язык : Russian
Default : Да
Forced : Нет

Меню
00:00:00.000 : en:Глава 1
00:11:12.000 : en:Глава 2
00:18:23.000 : en:Глава 3
00:25:27.000 : en:Глава 4
00:32:36.000 : en:Глава 5
00:39:37.000 : en:Глава 6
00:46:38.000 : en:Глава 7
00:53:52.000 : en:Глава 8
01:00:59.000 : en:Глава 9
01:08:04.000 : en:Глава 10
01:15:04.000 : en:Глава 11
01:22:30.000 : en:Глава 12
01:29:49.000 : en:Глава 13
01:38:01.000 : en:Глава 14
01:45:01.000 : en:Глава 15
01:52:56.000 : en:Глава 16
02:00:08.000 : en:Глава 17
02:07:04.000 : en:Глава 18


Свернуть
Скриншоты

Изображение
Изображение
Изображение
Изображение
Изображение
Свернуть
_________________
Изображение
Изображение
 vitso нравится это.
Не в сети
Профиль  
Начать новую темуОтветить на тему  [ 1 сообщение ] 
Вы не можете начинать темы
Вы не можете отвечать на сообщения
Вы не можете редактировать свои сообщения
Вы не можете удалять свои сообщения