Правила форума

Здесь находятся раздачи, на которых не было полного источника (сида) более месяца.
Вы можете вернуть релиз в соответствующий раздел, для этого напишите нам в специальной теме и встаньте на раздачу.
Новые релизы, повторяющие релизы в архиве, повторами не считаются.
Начать новую темуОтветить на тему  [ Сообщений: 3 ] 
Сообщения
 Добавлено: 2013-05-30 08:38
DVD Release Group
Аватара пользователя
Стаж: 7 лет 1 месяц
Сообщений: 3559
Спасибок: 247266
Лайков: 1018
12 раундов: Перезагрузка

12 Rounds: Reloaded


Изображение


Год выпуска: 2013
Страна: США
Жанр: Боевик
Продолжительность: 01:34:32
Перевод: Любительский (одноголосый)
Субтитры: Английские
Режиссер: Роэль Рейн
В ролях: Брайан Маркинсон, Рэнди Ортон, Синди Басби, Шон Роджерсон, Патрик Гилмор, Джесси Хатч, Колин Лоуренс, Челси Рейст, Фрейзер Айтчесон, Том Стивенс
Описание: В фильме "12 раундов 2: Перезагрузка" Вы увидите продолжение первой части фильма "12 раундов / 12 Rounds (2009)", в котором новоорлеанский полицейский Дэнни Фишер противостоял Майлсу Джексону - наиболее опасному преступнику в мире.
Дополнительно: Сохранены оригинальные чаптеры, как на Blu-Ray.
Sample:
http://multi-up.com/870673
Качество: BDRip 720p
Формат: MKV
Видео кодек: H264
Аудио кодек: AC3, DTS
Видео: 1280x720 23.98fps 6325Kbps
Аудио:
Audio Rus: AC3 48kHz 6ch 448Kbps
Audio Eng: DTS 48kHz 6ch 1510Kbps
"MediaInfo"
Формат : Matroska
Версия формата : Version 4 / Version 2
Размер файла : 5,47 Гбайт
Продолжительность : 1 ч. 34 м.
Общий поток : 8317 Кбит/сек
Дата кодирования : UTC 2013-05-29 23:27:43
Программа кодирования : mkvmerge v6.1.0 ('Old Devil') built on Mar 2 2013 14:32:37
Библиотека кодирования : libebml v1.3.0 + libmatroska v1.4.0

Видео
Идентификатор : 1
Формат : AVC
Формат/Информация : Advanced Video Codec
Профиль формата : High@L4.1
Параметр CABAC формата : Да
Параметр ReFrames формата : 9 кадров
Идентификатор кодека : V_MPEG4/ISO/AVC
Продолжительность : 1 ч. 34 м.
Битрейт : 6325 Кбит/сек
Ширина : 1280 пикселей
Высота : 720 пикселей
Соотношение сторон : 16:9
Частота кадров : 23,976 кадра/сек
Цветовое пространство : YUV
Субдискретизация насыщенности : 4:2:0
Битовая глубина : 8 бит
Тип развёртки : Прогрессивная
Бит/(Пиксели*Кадры) : 0.286
Размер потока : 4,08 Гбайт (74%)
Библиотека кодирования : x264 core 132 r2309kMod 3b1f1f7
Настройки программы : cabac=1 / ref=9 / deblock=1:-1:-1 / analyse=0x3:0x133 / me=umh / subme=10 / psy=1 / fade_compensate=0.00 / psy_rd=1.00:0.10 / mixed_ref=1 / me_range=32 / chroma_me=1 / trellis=2 / 8x8dct=1 / cqm=0 / deadzone=21,11 / fast_pskip=0 / chroma_qp_offset=-3 / threads=24 / lookahead_threads=4 / sliced_threads=0 / nr=0 / decimate=0 / interlaced=0 / bluray_compat=0 / constrained_intra=0 / bframes=8 / b_pyramid=2 / b_adapt=2 / b_bias=0 / direct=3 / weightb=1 / open_gop=0 / weightp=2 / keyint=250 / keyint_min=24 / scenecut=40 / intra_refresh=0 / rc=2pass / mbtree=0 / bitrate=6325 / ratetol=1.0 / qcomp=0.70 / qpmin=0 / qpmax=69 / qpstep=4 / cplxblur=20.0 / qblur=0.5 / ip_ratio=1.10 / pb_ratio=1.30 / aq=3:1.00
Язык : English
Default : Да
Forced : Нет

Аудио #1
Идентификатор : 2
Формат : AC-3
Формат/Информация : Audio Coding 3
Расширение режима : CM (complete main)
Идентификатор кодека : A_AC3
Продолжительность : 1 ч. 34 м.
Вид битрейта : Постоянный
Битрейт : 448 Кбит/сек
Каналы : 6 каналов
Расположение каналов : Front: L C R, Side: L R, LFE
Частота : 48,0 КГц
Битовая глубина : 16 бит
Метод сжатия : С потерями
Размер потока : 302 Мбайт (5%)
Язык : Russian
Default : Да
Forced : Нет

Аудио #2
Идентификатор : 3
Формат : DTS
Формат/Информация : Digital Theater Systems
Идентификатор кодека : A_DTS
Продолжительность : 1 ч. 34 м.
Вид битрейта : Постоянный
Битрейт : 1510 Кбит/сек
Каналы : 6 каналов
Расположение каналов : Front: L C R, Side: L R, LFE
Частота : 48,0 КГц
Битовая глубина : 24 бит
Метод сжатия : С потерями
Размер потока : 1017 Мбайт (18%)
Default : Нет
Forced : Нет

Текст
Идентификатор : 4
Формат : PGS
Идентификатор кодека : S_HDMV/PGS
Идентификатор кодека/Информация : The same subtitle format used on BDs/HD-DVDs
Язык : English
Default : Да
Forced : Нет

Меню
00:00:00.000 : en:00:00:00.000
00:05:15.190 : en:00:05:15.190
00:08:35.515 : en:00:08:35.515
00:12:21.366 : en:00:12:21.366
00:16:13.556 : en:00:16:13.556
00:22:05.241 : en:00:22:05.241
00:25:05.212 : en:00:25:05.212
00:30:25.115 : en:00:30:25.115
00:33:36.598 : en:00:33:36.598
00:37:59.068 : en:00:37:59.068
00:41:54.053 : en:00:41:54.053
00:43:48.209 : en:00:43:48.209
00:49:29.633 : en:00:49:29.633
00:52:08.375 : en:00:52:08.375
00:55:21.860 : en:00:55:21.860
00:59:36.740 : en:00:59:36.740
01:03:36.187 : en:01:03:36.187
01:06:38.620 : en:01:06:38.620
01:10:14.961 : en:01:10:14.961
01:14:29.840 : en:01:14:29.840
01:16:46.268 : en:01:16:46.268
01:21:21.335 : en:01:21:21.335
01:25:55.317 : en:01:25:55.317
01:29:09.386 : en:01:29:09.386
Свернуть

"Скриншоты"
Изображение
Изображение
Изображение
Изображение
Свернуть

Раздача группы:
Изображение
Не в сети
Профиль  
 Добавлено: 2013-05-30 09:02 (спустя 24 минуты)
Аватара пользователя
Стаж: 7 лет
Сообщений: 107
Лайков: 1
Как фильм?
Не в сети
Профиль  
 Добавлено: 2013-07-12 18:54 (спустя 1 месяц 13 дней)
Модератор
Аватара пользователя
Стаж: 8 лет 11 месяцев
Сообщений: 516
Спасибок: 26888
Лайков: 1
viewtopic.php?f=1743&t=513019
Не в сети
Профиль  
Начать новую темуОтветить на тему  [ Сообщений: 3 ] 
Вы не можете начинать темы
Вы не можете отвечать на сообщения
Вы не можете редактировать свои сообщения
Вы не можете удалять свои сообщения