Правила форума

Здесь находятся раздачи, на которых не было полного источника (сида) более месяца.
Вы можете вернуть релиз в соответствующий раздел, для этого напишите нам в специальной теме и встаньте на раздачу.
Новые релизы, повторяющие релизы в архиве, повторами не считаются.
Начать новую темуОтветить на тему  [ Сообщений: 10 ] 
Сообщения
 Добавлено: 2011-02-17 10:54
Top-releaser
Аватара пользователя
Стаж: 7 лет 3 месяца
Возраст: 25
Сообщений: 1036
Спасибок: 2694
Лайков: 9
127 Часов / 127 Hours

«Важна каждая секунда»

Изображение



Год выхода: 2010
Страна: США, Великобритания

Жанр: триллер, драма, приключения
Продолжительность: 01:33:41
Перевод: Профессиональный (многоголосый)

Режиссер: Дэнни Бойл
Сценарий: Дэнни Бойл, Саймон Бофой, Арон Ральстон
Продюсер: Джон Смтисон, Дэнни Бойл, Кристиан Колсон
Оператор: Энрике Шедьяк, Энтони Дод Мэнтл
Композитор: А.Р. Рахман

В ролях: Джеймс Франко, Кейт Мара, Эмбер Тэмблин, Шон Ботт, Колман Стингер, Трит Уильямс, Джон Лоуренс, Кейт Бёртон, Бэйли Мишель, Джонсон Ребекка С. Олсон

Описание: Неудержимый скалолаз и любитель спрятанных в каньонах пещер в очередной раз в одиночестве едет в горы и оказывается в смертельной ловушке. 127 часов без еды, без питья и практически без надежды выжить. Тут-то и проявляется сила характера…

KinoPoisk.ru: 7.951
IMDb.com: 8.1/10

pаздача группы:Изображение

Качество: BDRip 1080p
Формат: AVC

Видео: MPEG4 Video (H264) 1920x1040 23.98fps
Аудио 1: Russian Dolby AC3 48000Hz 6ch
Аудио 2: English DTS 48000Hz 6ch

Изображение

MediaInfo
General
Unique ID : 182005183469612640609938583987337775175 (0x88ECEC5C968C5EF2BD485BE756074847)
Complete name : E:\127.Hours.2010.P.BDRip.1080p.[uniongang.tv].mkv
Format : Matroska
File size : 8.18 GiB
Duration : 1h 33mn
Overall bit rate : 12.5 Mbps
Encoded date : UTC 2011-02-16 16:14:36
Writing application : mkvmerge v3.4.0 ('Rapunzel') сборка от May 15 2010 09:38:20
Writing library : libebml v0.8.0 + libmatroska v0.9.0

Video
ID : 1
Format : AVC
Format/Info : Advanced Video Codec
Format profile : High@L4.1
Format settings, CABAC : Yes
Format settings, ReFrames : 4 frames
Format settings, GOP : M=4, N=32
Codec ID : V_MPEG4/ISO/AVC
Duration : 1h 33mn
Bit rate : 10.6 Mbps
Width : 1 920 pixels
Height : 1 040 pixels
Display aspect ratio : 16:9
Frame rate : 23.976 fps
Color space : YUV
Chroma subsampling : 4:2:0
Bit depth : 8 bits
Scan type : Progressive
Bits/(Pixel*Frame) : 0.222
Stream size : 6.78 GiB (83%)
Writing library : x264 core 112 r1867 22bfd31
Encoding settings : cabac=1 / ref=4 / deblock=1:0:0 / analyse=0x3:0x133 / me=umh / subme=8 / psy=1 / psy_rd=1.00:0.00 / mixed_ref=1 / me_range=16 / chroma_me=1 / trellis=1 / 8x8dct=1 / cqm=0 / deadzone=21,11 / fast_pskip=1 / chroma_qp_offset=-2 / threads=24 / sliced_threads=0 / nr=0 / decimate=1 / interlaced=0 / constrained_intra=0 / bframes=3 / b_pyramid=2 / b_adapt=1 / b_bias=0 / direct=1 / weightb=1 / open_gop=0 / weightp=1 / keyint=250 / keyint_min=23 / scenecut=40 / intra_refresh=0 / rc=2pass / mbtree=0 / bitrate=10615 / ratetol=1.0 / qcomp=0.60 / qpmin=0 / qpmax=51 / qpstep=4 / cplxblur=20.0 / qblur=0.5 / ip_ratio=1.40 / pb_ratio=1.30 / aq=1:1.00

Audio #1
ID : 2
Format : AC-3
Format/Info : Audio Coding 3
Mode extension : CM (complete main)
Codec ID : A_AC3
Duration : 1h 33mn
Bit rate mode : Constant
Bit rate : 384 Kbps
Channel(s) : 6 channels
Channel positions : Front: L C R, Side: L R, LFE
Sampling rate : 48.0 KHz
Bit depth : 16 bits
Compression mode : Lossy
Stream size : 257 MiB (3%)
Language : Russian

Audio #2
ID : 3
Format : DTS
Format/Info : Digital Theater Systems
Codec ID : A_DTS
Duration : 1h 33mn
Bit rate mode : Constant
Bit rate : 1 510 Kbps
Channel(s) : 6 channels
Channel positions : Front: L C R, Side: L R, LFE
Sampling rate : 48.0 KHz
Bit depth : 24 bits
Compression mode : Lossy
Stream size : 1 012 MiB (12%)
Language : English

Text
ID : 4
Format : UTF-8
Codec ID : S_TEXT/UTF8
Codec ID/Info : UTF-8 Plain Text
Language : English


Свернуть
Скриншоты
Изображение
Изображение
Изображение
Изображение
Изображение
Свернуть





release by FoTP
Не в сети
Профиль  
 Добавлено: 2011-02-17 22:46 (спустя 11 часов)
Аватара пользователя
Стаж: 8 лет
Сообщений: 35
Спасибок: 18
Это как так быстро появилось, он ведь только сегодня вышел? :sh_ok:
Не в сети
Профиль  
 Добавлено: 2011-02-17 23:05 (спустя 19 минут)
Top-releaser
Аватара пользователя
Стаж: 7 лет 3 месяца
Возраст: 25
Сообщений: 1036
Спасибок: 2694
Лайков: 9
Действительно :sh_ok:
Cкрытый текст
;;-)))
Свернуть
Не в сети
Профиль  
 Добавлено: 2011-02-17 23:34 (спустя 28 минут)
Аватара пользователя
Стаж: 7 лет 4 месяца
Возраст: 28
Сообщений: 340
Спасибок: 4350
Лайков: 2
Залил саундтрек! :)
Не в сети
Профиль  
 Добавлено: 2011-02-18 21:37 (спустя 22 часа)
Аватара пользователя
Стаж: 8 лет 11 месяцев
Сообщений: 2004
Спасибок: 2290
Фильм просто потрясающий... Бойл не подвёл! смотрел сёня в кинотетатре... в некоторых моментах сердце замирает... очень грамотно всё сделанно, и саунд шикарный... актёр играет божественно...несмотря на жанр фильма, скучать ни раз не пришлось. 10 из 10.
Не в сети
Профиль  
 Добавлено: 2011-02-19 14:15 (спустя 16 часов)
Аватара пользователя
Стаж: 7 лет
Сообщений: 183
Лицензия?
_________________
Юзербары
Изображение
Изображение
Изображение
Изображение
Свернуть
Не в сети
Профиль  
 Добавлено: 2011-02-20 01:53 (спустя 11 часов)
Аватара пользователя
Стаж: 6 лет 1 месяц
Возраст: 28
Сообщений: 2
Спасибок: 5
Лицензия 17 марта будет.
Не в сети
Профиль  
 Добавлено: 2011-03-11 17:48 (спустя 19 дней)
Стаж: 7 лет 6 месяцев
Сообщений: 7
ФИЛЬМ ОТСНЯТ ЗА 127ЧАС. ЗА 127РУБ. ПОЛНАЯ ХРЕНЬ.
Не в сети
Профиль  
 Добавлено: 2011-03-22 16:42 (спустя 10 дней)
Стаж: 5 лет 10 месяцев
Сообщений: 280
Лайков: 8
Вещь..класс!!!
Не в сети
Профиль  
 Добавлено: 2011-04-12 21:38 (спустя 21 день)
Руководитель релиз-группы
Аватара пользователя
Стаж: 9 лет 1 месяц
Возраст: 28
Сообщений: 4244
Спасибок: 31995
Лайков: 32
Поглощено.
_________________
«you failed because you had the wrong dream...»
Не в сети
Профиль  
Начать новую темуОтветить на тему  [ Сообщений: 10 ] 
Вы не можете начинать темы
Вы не можете отвечать на сообщения
Вы не можете редактировать свои сообщения
Вы не можете удалять свои сообщения