Правила форума

Здесь находятся раздачи, на которых не было полного источника (сида) более месяца.
Вы можете вернуть релиз в соответствующий раздел, для этого напишите нам в специальной теме и встаньте на раздачу.
Новые релизы, повторяющие релизы в архиве, повторами не считаются.
Начать новую темуОтветить на тему  [ Сообщений: 3 ] 
Сообщения
 Добавлено: 2012-02-23 01:37
Аватара пользователя
Стаж: 5 лет 5 месяцев
Возраст: 30
Сообщений: 353
Спасибок: 7455
13 убийц / 13 assassins / Jusan-nin no shikaku

Изображение


Год выпуска: 2010
Страна: Япония, Великобритания (Asahi Broadcasting Corporation (ABC), Dentsu, Higashinippon Broadcasting Co., Hiroshima Home TV, Hokkaido Television Broadcasting Co. (HTB), Kyushu Asahi Broadcasting Co., Nagoya Broadcasting Network (NBN), Recorded Picture Company (RPC), Sedic International, Shizuoka Asahi Television Co. (SATV), Shogakukan Inc., The Asahi Shimbun Newspaper, Toho Company, Tsutaya Group, TV Asahi, Yahoo Japan)
Жанр: боевик, драма, приключения
Продолжительность: 02:00:02
Перевод: Профессиональный (многоголосый закадровый)
Субтитры: Нет

Режиссёр: Такаси Миике / Takashi Miike
Сценарист: Канео Икегами, Дайскэ Тэнган
Продюсер: Минами Ичикава, Тоичиро Шираиши, Мичихико Янагисава
Оператор: Нобуясу Кита
Композитор: Кодзи Эндо
В ролях: Кодзи Якусё, Такаюки Ямада, Юсуке Исейа, Горо Инагаки, Микидзиро Хира, Хироки Мацуката, Икки Савамура, Арата Фурута, Цуеши Ихара

Описание: Действие ленты помещено в эпоху сегунов, а расскажет картина о тайной миссии неких 13 убийц уничтожить злого правителя, выполнить которую оказывается не так-то просто, поскольку численность телохранителей этого злодея в десять раз превосходит количество людей, покушающихся на его жизнь.

Доп.информация: Анонсы
Рейтинг MPAA: Рейтинг R (Подростки до 17 лет допускаются на фильм только в сопровождении одного из родителей)
Мировая премьера: 9 сентября 2010
Премьера в России: 6 октября 2011, «Русский репортаж»
Бюджет: $6 000 000
Кассовые сборы: + $16 752 363 = $17 555 141

Изображение Изображение Изображение


Качество: DVD9 R5
Формат: DVD Video
Видео кодек: MPEG2
Аудио кодек: AC3 (Dolby Digital)
Видео: PAL 16:9 (720x576(0.581)) MPEG Video, 25,000 кадр/сек, 6025 Кбит/сек
Аудио #1: Russian (Dolby AC3, 6 ch) 448 Кбит/сек, 48,0 КГц [Профессиональный (многоголосый закадровый)]
Субтитры: Нет

"DVDInfo"
Title:
Size: 6.51 Gb ( 6 825 422 KBytes ) - DVD-9
Enabled regions: 1, 2, 3, 4, 5, 6, 7, 8

VTS_01 :
Play Length: 00:00:15
Video: PAL 4:3 (720x576) VBR
Audio:
Not specified (Dolby AC3, 2 ch)

VTS_02 :
Play Length: 00:00:08
Video: PAL 16:9 (720x576) VBR, Auto Pan&Scan
Audio:
Not specified (Dolby AC3, 2 ch)

VTS_03 :
Play Length: 00:00:12
Video: PAL 16:9 (720x576) VBR, Auto Pan&Scan
Audio:
Not specified (Dolby AC3, 2 ch)

VTS_04 :
Play Length: 00:02:20
Video: PAL 4:3 (720x576) VBR
Audio:
Not specified (Dolby AC3, 2 ch)

VTS_05 :
Play Length: 00:01:47
Video: PAL 16:9 (720x576) VBR, Auto Pan&Scan
Audio:
Not specified (Dolby AC3, 2 ch)

VTS_06 :
Play Length: 00:01:12
Video: PAL 16:9 (720x576) VBR, Auto Pan&Scan
Audio:
Not specified (Dolby AC3, 2 ch)

VTS_07 :
Play Length: 00:02:06
Video: PAL 4:3 (720x576) VBR
Audio:
Not specified (Dolby AC3, 2 ch)

VTS_08 :
Play Length: 00:01:30
Video: PAL 16:9 (720x576) VBR, Auto Pan&Scan
Audio:
Not specified (Dolby AC3, 2 ch)

VTS_09 :
Play Length: 00:02:34
Video: PAL 16:9 (720x576) VBR, Auto Pan&Scan
Audio:
Not specified (Dolby AC3, 2 ch)

VTS_10 :
Play Length: 00:02:03
Video: PAL 16:9 (720x576) VBR, Auto Pan&Scan
Audio:
Not specified (Dolby AC3, 2 ch)

VTS_11 :
Play Length: 00:02:33
Video: PAL 16:9 (720x576) VBR, Auto Pan&Scan
Audio:
Not specified (Dolby AC3, 2 ch)

VTS_12 :
Play Length: 00:02:02
Video: PAL 16:9 (720x576) VBR, Auto Pan&Scan
Audio:
Not specified (Dolby AC3, 2 ch)

VTS_13 :
Play Length: 02:00:02
Video: PAL 16:9 (720x576) VBR, Auto Pan&Scan
Audio:
Russian (Dolby AC3, 6 ch)
Свернуть

"MediaInfo"
Общее
Полное имя : G:\Новинки 2012\13.ubijts.2010.DVD9\VIDEO_TS\VTS_13_1.VOB
Формат : MPEG-PS
Размер файла : 1024 Мбайт
Продолжительность : 21 м.
Режим общего битрейта : Переменный
Общий поток : 6605 Кбит/сек

Видео
Идентификатор : 224 (0xE0)
Формат : MPEG Video
Версия формата : Version 2
Профиль формата : Main@Main
Параметр BVOP формата : Да
Параметр матрицы формата : По умолчанию
Параметр GOP формата : M=3, N=12
Продолжительность : 21 м.
Вид битрейта : Переменный
Битрейт : 6025 Кбит/сек
Максимальный битрейт : 7800 Кбит/сек
Ширина : 720 пикселей
Высота : 576 пикселей
Соотношение сторон : 16:9
Частота кадров : 25,000 кадров/сек
Стандарт вещания : PAL
Цветовое пространство : YUV
Субдискретизация насыщенности : 4:2:0
Битовая глубина : 8 бит
Тип развёртки : Прогрессивная
Метод сжатия : С потерями
Бит/(Пиксели*Кадры) : 0.581
Размер потока : 934 Мбайт (91%)

Аудио
Идентификатор : 189 (0xBD)-128 (0x80)
Формат : AC-3
Формат/Информация : Audio Coding 3
Расширение режима : CM (complete main)
Режим смешивания : DVD-Video
Продолжительность : 21 м.
Вид битрейта : Постоянный
Битрейт : 448 Кбит/сек
Каналы : 6 каналов
Расположение каналов : Front: L C R, Side: L R, LFE
Частота : 48,0 КГц
Битовая глубина : 16 бит
Метод сжатия : С потерями
Размер потока : 69,4 Мбайт (7%)

Свернуть

Скриншоты
Скриншоты меню
Изображение
Изображение
Изображение
Свернуть
Изображение
Изображение
Изображение
Изображение
Изображение
Изображение
Изображение
Изображение
Свернуть


ИзображениеИзображение
Не в сети
Профиль  
 Добавлено: 2012-03-02 13:52 (спустя 8 дней)
Стаж: 7 лет 1 месяц
Сообщений: 18
DVD 5 будет?
Не в сети
Профиль  
 Добавлено: 2012-03-07 23:47 (спустя 5 дней)
Аватара пользователя
Стаж: 7 лет 6 месяцев
Возраст: 51
Сообщений: 1782
Лайков: 1396
Фильм производит двойственное впечатление.

С одной стороны - вполне неплохо выстроенные исторические декорации, три известных и хорошо играющих японских актера и красиво окровавленные самурайские катаны. Еще понравилось, как строили из дерева городок для обороны.

Зато не понравилось, как городок обороняли. сплошная лажа, натянутость, и пафос, переходящий всякие разумные границы. Сто тысяч японских статистов -двойников (в том числе и большая часть из 13 самураев). К тому же - первая треть фильма, в которой ничего не происходит, и последняя треть фильма, сплошь состоящая из мясорубки, настолько невнятной, что непонятно - чувак рубит то ли недруга, то ли друга, то ли самого даже самого себя. Конец четкий, внятный. Но из всего действа этого двухчасового фильма НУ ОЧЕНЬ НУЖНО убрать минут сорок пять. А то и час. А то и полтора часа. Получится хорошая короткометражка вместо невнятной резины. Иногда короткий метр лучше бесконечной тягомотины.

Немного повеселил фрик из японских лесов, длинноносый, толкающий речи по поводу неполноценности самураев, и в добавок бессмертный. Речи его понравились, но повеселил немного, ей-богу. Если рассуждать хоть чуток объективно, этот фильм - поделка, а не самостоятельное произведение искусства. Переделка старого фильма, выполненная довольно лениво и нелепо.

Если вы любите японские фильмы настолько, насколько же и я - смотрите и увидите. И тогда вы оцените по-настоящему хорошие фильмы. А этот - разок досмотрите, зевая и постоянно нажимая кнопку перемотки. И с облегчением выкинете в корзину.

Сугубое ИМХО.
Не в сети
Профиль  
Начать новую темуОтветить на тему  [ Сообщений: 3 ] 
Вы не можете начинать темы
Вы не можете отвечать на сообщения
Вы не можете редактировать свои сообщения
Вы не можете удалять свои сообщения