Правила форума

Здесь находятся раздачи, на которых не было полного источника (сида) более месяца.
Вы можете вернуть релиз в соответствующий раздел, для этого напишите нам в специальной теме и встаньте на раздачу.
Новые релизы, повторяющие релизы в архиве, повторами не считаются.
Начать новую темуОтветить на тему  [ Сообщений: 3 ] 
Сообщения
 Добавлено: 2011-01-11 13:26
Top-releaser
Аватара пользователя
Стаж: 6 лет 11 месяцев
Возраст: 45
Сообщений: 299
Спасибок: 4108
Лайков: 3
22 пули: Бессмертный / L'immortel
«Le sang versé ne sèche jamais»

Изображение

Год выпуска: 2010
Страна: Франция
Жанр: боевик, драма, криминал
Продолжительность: 01:57:00
Перевод: Профессиональный (полное дублирование)

Режиссер: Ришар Берри / Richard Berry
Сценарий: Эрик Ассус / Eric Assous, Ришар Берри / Richard Berry, Александр де Ла Пательер / Alexandre de La Patelliere, Матьё Делапорт / Mathieu Delaporte, Франц-Оливье Гибер / Franz-Olivier Giesbert
Продюсер: Люк Бессон / Luc Besson, Дидье Хорау / Didier Hoarau, Пьер-Анж Ле Погам / Pierre-Ange Le Pogam
Оператор: Томас Хардмейер / Thomas Hardmeier
Композитор: Клаус Бадельт / Klaus Badelt

В ролях: Жан Рено (Charly Mattee), Марина Фоис (Marie Goldman), Габриэлла Райт (Yasmina Telaa), Кад Мерад (Tony Zacchia), Ришар Берри (Aurelio Rampoli), Дэниэл Лунд (Malek Telaa), Фани Коларова (Christelle Mattei), Клауди Жансак (Mme Fontarosa), Жан-Пьер Дарруссен (Martin Beaudinard), Жозефин Берри (Eva), Венантино Венантини (Padovano), Денис Браччини (Le boumian)
Описание: Шарль Матей - один из крестных отцов Марселя. Он решает отойти от дел и жить на покое, ведь ему немало лет, а за спиной слишком бурная жизнь. Но компаньоны против такого поворота событий. На него совершают жестокое покушение, не оставляя ему ни одного шанса.
Расстрелянного коллегами в упор, Шарля доставляют в больницу и извлекают из его тела 22 пули. Но каким-то чудом он остается жив. Теперь он жаждет отомстить своим некогда друзьям. И его месть будет не менее кровава и безжалостна.

Изображение
Бюджет: € 18 000 000
Сборы в России: $2 850 783
Сборы в мире: $18 399 792
Мировая премьера: 24 марта 2010
Релиз на DVD: 29 апреля 2010, «New Dream media», «Новый Диск»
Изображение

Качество: BDRip, 1080p
Формат: Matroska
Видео: AVC; 1920x816 (2.35:1); 10482 Kbps; 24 fps; 0,279 bpp
Аудио №1: Russian; AC3; 48 KHz; 384 Kbps; CBR; 6 ch; [Профессиональный (полное дублирование)]
Аудио №2: French; DTS; 48 KHz; 1509 Kbps; CBR; 6 ch; 24 bit; [Оригинал]
Субтитры №1: Russian
Субтитры №2: English

Раздача группы:Изображение

"MediaInfo"

Общее
Уникальный идентификатор : 203348416774349232831215851023735223669 (0x98FB7B021C269101B957FFE4D5C07575)
Полное имя : G:\!Video_MKV\22.puli.Besmertnyj.2010.BDRip.1080p.[R.G.Daredevil].mkv
Формат : Matroska
Размер файла : 10,3 Гбайт
Продолжительность : 1 ч. 57 м.
Общий поток : 12,6 Мбит/сек
Дата кодирования : UTC 2010-09-16 17:20:06
Программа кодирования : mkvmerge v2.1.0 ('Another Place To Fall') built on Aug 19 2007 13:40:07
Библиотека кодирования : libebml v0.7.7 + libmatroska v0.8.1

Видео
Идентификатор : 1
Формат : AVC
Формат/Информация : Advanced Video Codec
Профиль формата : High@L4.1
Параметр CABAC формата : Да
Параметр ReFrames формата : 5 кадры
Идентификатор кодека : V_MPEG4/ISO/AVC
Продолжительность : 1 ч. 57 м.
Битрейт : 10,7 Мбит/сек
Ширина : 1920 пикс.
Высота : 816 пикс.
Соотношение сторон : 2,35:1
Частота кадров : 24,000 кадр/сек
Цветовое пространство : YUV
Подвыборка цветности : 4:2:0
Битовая глубина : 8 бит
Тип развёртки : Прогрессивная
Бит/(Пиксели*Кадры) : 0.286
Размер потока : 8,57 Гбайт (83%)
Заголовок : 22.Bullets.2010.BluRay.1080p.DTS.x264-CHD
Библиотека кодирования : x264 core 104 r1703 cd21d05
Настройки программы : cabac=1 / ref=5 / deblock=1:-3:-3 / analyse=0x3:0x113 / me=umh / subme=9 / psy=1 / psy_rd=1.05:0.10 / mixed_ref=1 / me_range=32 / chroma_me=1 / trellis=2 / 8x8dct=1 / cqm=0 / deadzone=21,11 / fast_pskip=0 / chroma_qp_offset=-2 / threads=12 / sliced_threads=0 / nr=0 / decimate=1 / interlaced=0 / constrained_intra=0 / bframes=6 / b_pyramid=2 / b_adapt=2 / b_bias=0 / direct=3 / weightb=1 / open_gop=0 / weightp=2 / keyint=250 / keyint_min=24 / scenecut=40 / intra_refresh=0 / rc_lookahead=60 / rc=2pass / mbtree=1 / bitrate=10738 / ratetol=2.0 / qcomp=0.70 / qpmin=10 / qpmax=51 / qpstep=4 / cplxblur=20.0 / qblur=0.5 / vbv_maxrate=50000 / vbv_bufsize=50000 / ip_ratio=1.40 / aq=1:1.00 / nal_hrd=none
Язык : French

Аудио #1
Идентификатор : 2
Формат : AC-3
Формат/Информация : Audio Coding 3
Расширение режима : CM (complete main)
Идентификатор кодека : A_AC3
Продолжительность : 1 ч. 57 м.
Вид битрейта : Постоянный
Битрейт : 384 Кбит/сек
Канал(ы) : 6 канала(ов)
Расположение каналов : Front: L C R, Side: L R, LFE
Частота : 48,0 КГц
Битовая глубина : 16 бит
Метод сжатия : С потерями
Размер потока : 321 Мбайт (3%)
Заголовок : Дубляж R5 AC3/5.1 384 kbps
Язык : Russian

Аудио #2
Идентификатор : 3
Формат : DTS
Формат/Информация : Digital Theater Systems
Идентификатор кодека : A_DTS
Продолжительность : 1 ч. 57 м.
Вид битрейта : Постоянный
Битрейт : 1510 Кбит/сек
Канал(ы) : 6 канала(ов)
Расположение каналов : Front: L C R, Side: L R, LFE
Частота : 48,0 КГц
Битовая глубина : 24 бит
Метод сжатия : С потерями
Размер потока : 1,23 Гбайт (12%)
Заголовок : Оригинал DTS 1536 kbps
Язык : French

Текст #1
Идентификатор : 4
Формат : UTF-8
Идентификатор кодека : S_TEXT/UTF8
Идентификатор кодека/Информация : UTF-8 Plain Text
Заголовок : Субтитры
Язык : Russian

Текст #2
Идентификатор : 5
Формат : UTF-8
Идентификатор кодека : S_TEXT/UTF8
Идентификатор кодека/Информация : UTF-8 Plain Text
Заголовок : Субтитры
Язык : English
Свернуть
Изображение
"Скриншоты"

Изображение
Изображение
Изображение
Изображение
Изображение
Свернуть
Не в сети
Профиль  
 Добавлено: 2011-01-11 22:17 (спустя 8 часов)
Аватара пользователя
Стаж: 6 лет 8 месяцев
Возраст: 21
Сообщений: 197
Спасибок: 3502
Лайков: 1
Очень хороший и интересный фильм. Мне очень понравился, я даже многим друзьям советую его посмотреть! :) (Возможно как-нибудь скачаю! Автору спс!
Спс ткнул :co_ol:
_________________
Изображение
Не в сети
Профиль  
 Добавлено: 2012-02-03 10:59 (спустя 1 год)
Стаж: 6 лет 7 месяцев
Сообщений: 11
Дай скорости :men:
Не в сети
Профиль  
Начать новую темуОтветить на тему  [ Сообщений: 3 ] 
Вы не можете начинать темы
Вы не можете отвечать на сообщения
Вы не можете редактировать свои сообщения
Вы не можете удалять свои сообщения