Правила форума

Здесь находятся раздачи, на которых не было полного источника (сида) более месяца.
Вы можете вернуть релиз в соответствующий раздел, для этого напишите нам в специальной теме и встаньте на раздачу.
Новые релизы, повторяющие релизы в архиве, повторами не считаются.
Начать новую темуОтветить на тему  [ Сообщений: 13 ] 
Сообщения
 Добавлено: 2014-06-03 03:41
DVD Release Group
Аватара пользователя
Стаж: 7 лет 1 месяц
Сообщений: 3563
Спасибок: 247498
Лайков: 1020
300 спартанцев: Расцвет империи

300: Rise of an Empire


Изображение


Год выпуска: 2014
Страна: США
Жанр: Боевик, драма, военный
Продолжительность: 01:42:46
Перевод: Профессиональный (полное дублирование)
Субтитры: Английские
Режиссер: Ноам Мурро
В ролях: Салливан Степлтон, Лина Хиди, Ева Грин, Дэвид Уэнэм, Каллэн Мулвей, Родриго Санторо, Джек О'Коннелл, Ганс Мэтисон, Кэйтлин Кармайкл, Скотт Берн
Описание: После победы над царем Леонидом персидская армия во главе с Ксерксом движется на север. На её пути оказывается флот Афин под руководством адмирала Фемистокла. Силы противников не равны, и Фемистокл вынужден вступить в союз с заклятым врагом афинского государства Спартой. Только объединившись у враждующих полисов-государств есть шанс что-то противопоставить могущественному Ксерксу.
Изображение
Качество: BDRip 720p
Формат: MKV
Видео кодек: H.264
Аудио кодек: AC3, DTS
Видео: 1280x536 23.98fps 4591kbps
Аудио:
Аудио Rus: AC3 48kHz 6ch 384kbps
Аудио Eng: DTS 48kHz 6ch 1510kbps
"MediaInfo"
Формат : Matroska
Версия формата : Version 2
Размер файла : 4,65 Гбайт
Продолжительность : 1 ч. 42 м.
Общий поток : 6484 Кбит/сек
Дата кодирования : UTC 2014-06-04 19:55:54
Программа кодирования : mkvmerge v6.9.1 ('Blue Panther') 64bit built on Apr 18 2014 18:23:38
Библиотека кодирования : libebml v1.3.0 + libmatroska v1.4.1

Видео
Идентификатор : 1
Формат : AVC
Формат/Информация : Advanced Video Codec
Профиль формата : High@L4.1
Параметр CABAC формата : Да
Параметр ReFrames формата : 5 кадров
Идентификатор кодека : V_MPEG4/ISO/AVC
Продолжительность : 1 ч. 42 м.
Битрейт : 4591 Кбит/сек
Ширина : 1280 пикселей
Высота : 536 пикселей
Соотношение сторон : 2,40:1
Режим частоты кадров : Постоянный
Частота кадров : 23,976 кадра/сек
Цветовое пространство : YUV
Субдискретизация насыщенности : 4:2:0
Битовая глубина : 8 бит
Тип развёртки : Прогрессивная
Бит/(Пиксели*Кадры) : 0.279
Размер потока : 3,20 Гбайт (69%)
Библиотека кодирования : x264 core 142 r2431 ac76440
Настройки программы : cabac=1 / ref=5 / deblock=1:0:0 / analyse=0x3:0x133 / me=umh / subme=7 / psy=1 / psy_rd=1.00:0.00 / mixed_ref=1 / me_range=16 / chroma_me=1 / trellis=1 / 8x8dct=1 / cqm=0 / deadzone=21,11 / fast_pskip=1 / chroma_qp_offset=-2 / threads=8 / lookahead_threads=1 / sliced_threads=0 / nr=0 / decimate=1 / interlaced=0 / bluray_compat=0 / constrained_intra=0 / bframes=3 / b_pyramid=2 / b_adapt=2 / b_bias=0 / direct=3 / weightb=1 / open_gop=0 / weightp=2 / keyint=250 / keyint_min=23 / scenecut=40 / intra_refresh=0 / rc_lookahead=50 / rc=2pass / mbtree=1 / bitrate=4591 / ratetol=1.0 / qcomp=0.60 / qpmin=0 / qpmax=69 / qpstep=4 / cplxblur=20.0 / qblur=0.5 / ip_ratio=1.40 / aq=1:1.00
Язык : English
Default : Да
Forced : Нет

Аудио #1
Идентификатор : 2
Формат : AC-3
Формат/Информация : Audio Coding 3
Расширение режима : CM (complete main)
Параметр Endianness формата : Big
Идентификатор кодека : A_AC3
Продолжительность : 1 ч. 42 м.
Вид битрейта : Постоянный
Битрейт : 384 Кбит/сек
Каналы : 6 каналов
Расположение каналов : Front: L C R, Side: L R, LFE
Частота : 48,0 КГц
Битовая глубина : 16 бит
Метод сжатия : С потерями
Размер потока : 282 Мбайт (6%)
Язык : Russian
Default : Да
Forced : Нет

Аудио #2
Идентификатор : 3
Формат : DTS
Формат/Информация : Digital Theater Systems
Режим : 16
Параметр Endianness формата : Big
Идентификатор кодека : A_DTS
Продолжительность : 1 ч. 42 м.
Вид битрейта : Постоянный
Битрейт : 1509 Кбит/сек
Каналы : 6 каналов
Расположение каналов : Front: L C R, Side: L R, LFE
Частота : 48,0 КГц
Битовая глубина : 24 бит
Метод сжатия : С потерями
Размер потока : 1,08 Гбайт (23%)
Язык : English
Default : Нет
Forced : Нет

Текст #1
Идентификатор : 4
Формат : UTF-8
Идентификатор кодека : S_TEXT/UTF8
Идентификатор кодека/Информация : UTF-8 Plain Text
Заголовок : English SDH
Язык : English
Default : Нет
Forced : Нет

Текст #2
Идентификатор : 5
Формат : UTF-8
Идентификатор кодека : S_TEXT/UTF8
Идентификатор кодека/Информация : UTF-8 Plain Text
Заголовок : English
Язык : English
Default : Нет
Forced : Нет

Меню
00:00:00.000 : en:00:00:00.000
00:10:26.376 : en:00:10:26.376
00:20:54.628 : en:00:20:54.628
00:31:15.290 : en:00:31:15.290
00:40:58.498 : en:00:40:58.498
00:50:50.714 : en:00:50:50.714
01:00:05.435 : en:01:00:05.435
01:09:51.813 : en:01:09:51.813
01:19:51.245 : en:01:19:51.245
01:31:07.295 : en:01:31:07.295
01:33:57.131 : en:01:33:57.131
Свернуть

"Скриншоты"
Изображение
Изображение
Изображение
Изображение
Изображение
Изображение
Свернуть


Последний раз редактировалось rastor 2014-06-05 06:39, всего редактировалось 2 раз(а).
Не в сети
Профиль  
 Добавлено: 2014-06-03 10:18 (спустя 6 часов)
Аватара пользователя
Стаж: 6 лет 9 месяцев
Сообщений: 39
как фильм ?
Не в сети
Профиль  
 Добавлено: 2014-06-03 10:46 (спустя 28 минут)
Стаж: 6 лет 5 месяцев
Возраст: 24
Сообщений: 8
Лайков: 2
По мне сухопутные бои в первой части выглядели зрелищней, нежели водные во второй. Ну а в целом - такой же крутой файтинг.
Не в сети
Профиль  
 Добавлено: 2014-06-03 17:40 (спустя 6 часов)
Аватара пользователя
Стаж: 8 лет 1 месяц
Сообщений: 128
Спасибок: 409
Лайков: 25
а чё за беременный мужик на постере? :-D :-D :-D
 Sobakevic нравится это.
Не в сети
Профиль  
 Добавлено: 2014-06-03 18:33 (спустя 52 минуты)
Модератор
Аватара пользователя
Стаж: 8 лет 3 месяца
Возраст: 22
Сообщений: 1903
Спасибок: 1500
Лайков: 5
фильм отстой...
мочилово,конечно,знатное,но все портит эффект "Убить Билла",а именно абсолютно нереальная кровища во все стороны....на Актеров денег наскребли,а на кровь не хватило видимо...
Голая Ева Грин,как всегда,прекрасна=)
В целом,гораздо хуже первой части....там все смотрелось живо,драматично и хорошо....а здесь...как кукольный спектакль смотришь...
Не в сети
Профиль  
 Добавлено: 2014-06-03 20:54 (спустя 2 часа 20 минут)
Аватара пользователя
Стаж: 7 лет 9 месяцев
Сообщений: 84
Спасибок: 69
Лайков: 5

art-gruzdev:

фильм отстой...
мочилово,конечно,знатное,но все портит эффект "Убить Билла",а именно абсолютно нереальная кровища во все стороны....на Актеров денег наскребли,а на кровь не хватило видимо...
Голая Ева Грин,как всегда,прекрасна=)
В целом,гораздо хуже первой части....там все смотрелось живо,драматично и хорошо....а здесь...как кукольный спектакль смотришь...
Это стиль... Фильмы Тарантино не трогай только. Хочешь чего-то реального, выйди на улицу.
Не в сети
Профиль  
 Добавлено: 2014-06-03 21:14 (спустя 20 минут)
Модератор
Аватара пользователя
Стаж: 8 лет 3 месяца
Возраст: 22
Сообщений: 1903
Спасибок: 1500
Лайков: 5

Amrin@:

art-gruzdev:

фильм отстой...
мочилово,конечно,знатное,но все портит эффект "Убить Билла",а именно абсолютно нереальная кровища во все стороны....на Актеров денег наскребли,а на кровь не хватило видимо...
Голая Ева Грин,как всегда,прекрасна=)
В целом,гораздо хуже первой части....там все смотрелось живо,драматично и хорошо....а здесь...как кукольный спектакль смотришь...
Это стиль... Фильмы Тарантино не трогай только. Хочешь чего-то реального, выйди на улицу.
Странная реакция на мой комментраий...
во-первых,этот фильм, как ни крути, исторический...пусть и с натяжкой...и превращать его в "фильм Тарантино" абсолютно не уместно...
во-вторых,фильм позиционируется,как продолжение оригинальной истории и,соответственно, должен быть выдержан в этой же атмосфере и стилистике...
в-третьих,кроме как у "Убить Билла" такого эффекта ни в каких фильмах я не видел,кроме абсолютно авторских трэшовых киношек,поэтому и привел его в пример..
Теперь тебе все ясно?
Не в сети
Профиль  
 Добавлено: 2014-06-03 21:54 (спустя 40 минут)
Аватара пользователя
Стаж: 8 лет 9 месяцев
Возраст: 103
Сообщений: 6506
Спасибок: 5636
Лайков: 28

art-gruzdev:

как у "Убить Билла" такого эффекта ни в каких фильмах я не видел,кроме абсолютно авторских трэшовых киношек
Любой фильм Снайдера, любой фильм Тарантино, любой фильм Родригеза.

art-gruzdev:

фильм, как ни крути, исторический
HAHAHAHAH
_________________
Изображение Инвайт в Dropbox - онлайн хранилища ващих файлов
Изображение Оплата World of Warcraft. Месяц - 260 рублей!
Cкрытый текст
Изображение

Изображение

Изображение
Свернуть
 DJoKeR777 нравится это.
Не в сети
Профиль  
 Добавлено: 2014-06-05 06:38 (спустя 1 день 8 часов)
DVD Release Group
Аватара пользователя
Стаж: 7 лет 1 месяц
Сообщений: 3563
Спасибок: 247498
Лайков: 1020
Торрент-файл обновлен на BDRip.
Не в сети
Профиль  
 Добавлено: 2014-06-05 11:45 (спустя 5 часов)
Модератор
Аватара пользователя
Стаж: 8 лет 1 месяц
Сообщений: 155
Спасибок: 2853
rastor
BDRip 1080p [IMAX EDITION] будет?
Не в сети
Профиль  
 Добавлено: 2014-06-05 14:36 (спустя 2 часа 51 минута)
DVD Release Group
Аватара пользователя
Стаж: 7 лет 1 месяц
Сообщений: 3563
Спасибок: 247498
Лайков: 1020
karfagen7
http://nnportal.org/tracker/hd-dvd-3d-f ... 31526.html
Не в сети
Профиль  
 Добавлено: 2014-06-05 23:53 (спустя 9 часов)
Стаж: 7 лет 5 месяцев
Сообщений: 103
Лайков: 4
автору спасибо, но фильм дурь)) когда увидел сцену тра ...ха , на смех пробило)
1ая часть в целом, умнее)) , а тут...
и еще слишком много комп графики, перебор, все должно быть в меру.
Не в сети
Профиль  
 Добавлено: 2014-06-08 12:48 (спустя 2 дня 12 часов)
Стаж: 2 года 11 месяцев
Сообщений: 5
дайте скорости плиз
Не в сети
Профиль  
Начать новую темуОтветить на тему  [ Сообщений: 13 ] 
Вы не можете начинать темы
Вы не можете отвечать на сообщения
Вы не можете редактировать свои сообщения
Вы не можете удалять свои сообщения