Правила форума

Здесь находятся раздачи, на которых не было полного источника (сида) более месяца.
Вы можете вернуть релиз в соответствующий раздел, для этого напишите нам в специальной теме и встаньте на раздачу.
Новые релизы, повторяющие релизы в архиве, повторами не считаются.
Начать новую темуОтветить на тему  [ Сообщений: 8 ] 
Сообщения
 Добавлено: 2014-03-20 23:30
DVD Release Group
Аватара пользователя
Стаж: 7 лет 1 месяц
Сообщений: 3569
Спасибок: 247801
Лайков: 1020
47 ронинов

47 Ronin


Изображение


Год выпуска: 2013
Страна: США
Жанр: Фэнтези, боевик, приключения
Продолжительность: 01:58:43
Перевод: Профессиональный (полное дублирование) чистый звук
Режиссер: Карл Ринш
В ролях: Киану Ривз, Хироюки Санада, Ко Шибасаки, Таданобу Асано, Мин Танака, Джин Аканиши, Масаёси Ханеда, Хироси Согабэ, Такато Йонемото, Хироси Ямада
Описание: Таинственный странник, преданный всеми, проданный в рабство, избранный судьбой вершить месть, станет одним из 47 воинов, бросивших вызов смерти. Явившись из другого мира, он восстанет против темных сил, чтобы защитить свою запретную любовь.
Изображение Изображение
Качество: BDRip 1080p
Формат: MKV
Видео кодек: H.264
Аудио кодек: AC3, DTS
Видео: 1920x800 23.98fps 9032kbps
Аудио:
Аудио Rus: AC3 48kHz 2ch 256kbps
Аудио Eng: DTS 48kHz 6ch 1510kbps
"MediaInfo"
Формат : Matroska
Версия формата : Version 4 / Version 2
Размер файла : 8,95 Гбайт
Продолжительность : 1 ч. 58 м.
Общий поток : 10,8 Мбит/сек
Название фильма : 47 Ronin
Дата кодирования : UTC 2014-03-20 16:29:32
Программа кодирования : mkvmerge v6.8.0 ('Theme for Great Cities') 64bit built on Mar 2 2014 21:34:26
Библиотека кодирования : libebml v1.3.0 + libmatroska v1.4.1

Видео
Идентификатор : 1
Формат : AVC
Формат/Информация : Advanced Video Codec
Профиль формата : High@L4.1
Параметр CABAC формата : Да
Параметр ReFrames формата : 5 кадров
Идентификатор кодека : V_MPEG4/ISO/AVC
Продолжительность : 1 ч. 58 м.
Битрейт : 9032 Кбит/сек
Ширина : 1920 пикселей
Высота : 800 пикселей
Соотношение сторон : 2,40:1
Частота кадров : 23,976 кадра/сек
Цветовое пространство : YUV
Субдискретизация насыщенности : 4:2:0
Битовая глубина : 8 бит
Тип развёртки : Прогрессивная
Бит/(Пиксели*Кадры) : 0.245
Размер потока : 7,31 Гбайт (82%)
Библиотека кодирования : x264 core 140 r2377 1ca7bb9
Настройки программы : cabac=1 / ref=5 / deblock=1:0:0 / analyse=0x3:0x133 / me=umh / subme=7 / psy=1 / psy_rd=1.00:0.00 / mixed_ref=1 / me_range=16 / chroma_me=1 / trellis=1 / 8x8dct=1 / cqm=0 / deadzone=21,11 / fast_pskip=0 / chroma_qp_offset=-2 / threads=18 / lookahead_threads=3 / sliced_threads=0 / nr=0 / decimate=1 / interlaced=0 / bluray_compat=0 / constrained_intra=0 / bframes=3 / b_pyramid=2 / b_adapt=1 / b_bias=0 / direct=1 / weightb=1 / open_gop=0 / weightp=2 / keyint=250 / keyint_min=23 / scenecut=40 / intra_refresh=0 / rc_lookahead=40 / rc=2pass / mbtree=1 / bitrate=9032 / ratetol=1.0 / qcomp=0.60 / qpmin=0 / qpmax=69 / qpstep=4 / cplxblur=20.0 / qblur=0.5 / ip_ratio=1.40 / aq=1:1.00
Язык : English
Default : Да
Forced : Нет

Аудио #1
Идентификатор : 2
Формат : AC-3
Формат/Информация : Audio Coding 3
Расширение режима : CM (complete main)
Идентификатор кодека : A_AC3
Продолжительность : 1 ч. 58 м.
Вид битрейта : Постоянный
Битрейт : 256 Кбит/сек
Каналы : 2 канала
Расположение каналов : Front: L R
Частота : 48,0 КГц
Битовая глубина : 16 бит
Метод сжатия : С потерями
Размер потока : 217 Мбайт (2%)
Язык : Russian
Default : Да
Forced : Нет

Аудио #2
Идентификатор : 3
Формат : DTS
Формат/Информация : Digital Theater Systems
Идентификатор кодека : A_DTS
Продолжительность : 1 ч. 58 м.
Вид битрейта : Постоянный
Битрейт : 1510 Кбит/сек
Каналы : 6 каналов
Расположение каналов : Front: L C R, Side: L R, LFE
Частота : 48,0 КГц
Битовая глубина : 24 бит
Метод сжатия : С потерями
Размер потока : 1,25 Гбайт (14%)
Язык : English
Default : Нет
Forced : Нет

Меню
00:00:00.000 : en:00:00:00.000
00:04:27.559 : en:00:04:27.559
00:11:12.088 : en:00:11:12.088
00:16:27.820 : en:00:16:27.820
00:20:11.836 : en:00:20:11.836
00:26:52.319 : en:00:26:52.319
00:31:02.944 : en:00:31:02.944
00:36:10.627 : en:00:36:10.627
00:43:36.614 : en:00:43:36.614
00:50:14.511 : en:00:50:14.511
00:54:59.421 : en:00:54:59.421
00:59:54.049 : en:00:59:54.049
01:09:57.735 : en:01:09:57.735
01:13:59.018 : en:01:13:59.018
01:19:12.247 : en:01:19:12.247
01:24:17.386 : en:01:24:17.386
01:33:00.825 : en:01:33:00.825
01:38:55.555 : en:01:38:55.555
01:44:41.609 : en:01:44:41.609
01:48:38.303 : en:01:48:38.303
Свернуть

"Скриншоты"
Изображение
Изображение
Изображение
Изображение
Изображение
Изображение
Свернуть
Не в сети
Профиль  
 Добавлено: 2014-03-21 06:26 (спустя 6 часов)
Аватара пользователя
Стаж: 3 года 3 месяца
Возраст: 35
Сообщений: 37
ай на-нэ на-нэ!!!!! :dan_ser: спасибо ограмадное!!!!!! :dan_ser: долго ждал этт фильм в хорошем качестве!!!!
Не в сети
Профиль  
 Добавлено: 2014-03-21 16:00 (спустя 9 часов)
Аватара пользователя
Стаж: 8 лет 2 месяца
Сообщений: 40
Лайков: 2
смотрел а кино фильм класссссс!!! :bra_vo: СПАСИБО!!! :ya_hoo_oo:
Не в сети
Профиль  
 Добавлено: 2014-03-22 18:14 (спустя 1 день 2 часа)
Аватара пользователя
Стаж: 7 лет 6 месяцев
Сообщений: 54
Спасибок: 32
Лайков: 4
Фильм действительно хорош, советую.
Не в сети
Профиль  
 Добавлено: 2014-03-30 18:58 (спустя 8 дней)
Стаж: 8 лет 7 месяцев
Сообщений: 7
Спасибо!
Не в сети
Профиль  
 Добавлено: 2014-03-31 13:58 (спустя 19 часов)
Аватара пользователя
Стаж: 7 лет 8 месяцев
Возраст: 24
Сообщений: 299
Спасибок: 71
Лайков: 2
3д когда будет?
Не в сети
Профиль  
 Добавлено: 2014-03-31 14:49 (спустя 51 минута)
DVD Release Group
Аватара пользователя
Стаж: 7 лет 1 месяц
Сообщений: 3569
Спасибок: 247801
Лайков: 1020
ronaldoronaldo
47 ронинов в 3D уже давно есть.
Не в сети
Профиль  
 Добавлено: 2014-03-31 17:05 (спустя 2 часа 15 минут)
Аватара пользователя
Стаж: 4 года 10 месяцев
Возраст: 29
Сообщений: 86
Лайков: 1
спс жду 5.1
Не в сети
Профиль  
Начать новую темуОтветить на тему  [ Сообщений: 8 ] 
Вы не можете начинать темы
Вы не можете отвечать на сообщения
Вы не можете редактировать свои сообщения
Вы не можете удалять свои сообщения