Правила форума

Здесь находятся раздачи, на которых не было полного источника (сида) более месяца.
Вы можете вернуть релиз в соответствующий раздел, для этого напишите нам в специальной теме и встаньте на раздачу.
Новые релизы, повторяющие релизы в архиве, повторами не считаются.
Начать новую темуОтветить на тему  [ Сообщений: 11 ] 
Сообщения
 Добавлено: 2011-08-23 06:12
Top-releaser
Аватара пользователя
Стаж: 8 лет 7 месяцев
Сообщений: 1286
Спасибок: 3420
Лайков: 7
5 дней в августе / 5 Days of War
«Their only weapon is the truth.»

Изображение
Год выпуска: 2011
Страна: США
Жанр: боевик, драма, военный
Продолжительность: 01:53:02
Перевод: Субтитры, Любительский (одноголосый)

Режиссер: Ренни Харлин
Сценарий: Микко Аланн, Дэвид Бэттл
Продюсер: Мырза Давитая, Koba Nakopia, Ренни Харлин, Джордж Ласку, Ник Лиани
Оператор: Чекко Варезе
Композитор: Тревор Рэбин

В ролях: Руперт Френд, Эммануэль Шрики, Ричард Койл, Хэзер Грэм, Джонатон Шаех, Раде Шербеджия, Энди Гарсиа, Вэл Килмер, Микко Ноусиайнен, Михаил Гомиашвили, Ana Imnadze, Антье Трое
Описание: Фильм повествует о войне между Грузией и Россией в 2008 году. Показываются события, какими их видят американский журналист, его оператор и грузинские жители.

Раздача: Изображение

Изображение


Бюджет: $32 000 000
Сборы в США: $6 254
Мировая премьера: 3 ноября 2010
MPAA: Изображение
Качество: BD Remux
Формат: Matroska
Видео: AVC; 1920x1080 (16:9); 23,976 fps
Аудио №1: Russian; AC3; 384 Kbps; CBR; 6 ch
Аудио №2: DTS-HD; VBR; 6 ch; 16 bit

MediaInfo
Общее
Уникальный идентификатор : 245008552918927848632484668119776851701 (0xB852EE4D7AF1A272869B8CA8E92176F5)
Полное имя : E:\Видео\5 дней в августе (2011. 5 Days of August).mkv
Формат : Matroska
Версия формата : Version 2
Размер файла : 14,4 Гбайт
Продолжительность : 1 ч. 53 м.
Общий поток : 18,3 Мбит/сек
Название фильма : 5 Days of August 2011 1080p BluRay AVC DTS-HD MA 5.1-HDChina [rutracker.org]
Дата кодирования : UTC 2011-08-20 19:43:29
Программа кодирования : mkvmerge v4.9.1 ('Ich will') сборка от Jul 11 2011 23:53:15
Библиотека кодирования : libebml v1.2.1 + libmatroska v1.1.1

Видео
Идентификатор : 1
Формат : AVC
Формат/Информация : Advanced Video Codec
Профиль формата : High@L4.1
Параметр CABAC формата : Да
Параметр ReFrames формата : 4 кадра
Параметры GOP формата : M=1, N=24
Идентификатор кодека : V_MPEG4/ISO/AVC
Продолжительность : 1 ч. 53 м.
Вид битрейта : Переменный
Битрейт : 16,0 Мбит/сек
Максимальный битрейт : 40,0 Мбит/сек
Ширина : 1920 пикс.
Высота : 1080 пикс.
Соотношение сторон : 16:9
Частота кадров : 23,976 кадр/сек
Цветовое пространство : YUV
Подвыборка цветности : 4:2:0
Битовая глубина : 8 бит
Тип развёртки : Прогрессивная
Бит/(Пиксели*Кадры) : 0.321
Размер потока : 12,6 Гбайт (87%)
Язык : English

Аудио #1
Идентификатор : 2
Формат : AC-3
Формат/Информация : Audio Coding 3
Расширение режима : CM (complete main)
Идентификатор кодека : A_AC3
Продолжительность : 1 ч. 53 м.
Вид битрейта : Постоянный
Битрейт : 384 Кбит/сек
Каналы : 6 каналов
Расположение каналов : Front: L C R, Side: L R, LFE
Частота : 48,0 КГц
Битовая глубина : 16 бит
Метод сжатия : С потерями
Размер потока : 310 Мбайт (2%)
Заголовок : VO [Иван Айвазов]
Язык : Russian

Аудио #2
Идентификатор : 3
Формат : DTS
Формат/Информация : Digital Theater Systems
Профиль формата : MA / Core
Идентификатор кодека : A_DTS
Продолжительность : 1 ч. 53 м.
Вид битрейта : Переменный
Битрейт : 1576 Кбит/сек / 1510 Кбит/сек
Каналы : 6 каналов
Расположение каналов : Front: L C R, Side: L R, LFE
Частота : 48,0 КГц
Битовая глубина : 16 бит
Метод сжатия : Без потерь / Lossy
Язык : English

Текст #1
Идентификатор : 4
Формат : UTF-8
Идентификатор кодека : S_TEXT/UTF8
Идентификатор кодека/Информация : UTF-8 Plain Text
Язык : Russian

Текст #2
Идентификатор : 5
Формат : UTF-8
Идентификатор кодека : S_TEXT/UTF8
Идентификатор кодека/Информация : UTF-8 Plain Text
Язык : English
Свернуть

Скриншоты
Изображение
Изображение
Изображение
Изображение
Изображение
Изображение
Изображение
Изображение
Изображение

Свернуть

Изображение
Не в сети
Профиль  
 Добавлено: 2011-08-26 19:23 (спустя 3 дня)
Top-releaser
Аватара пользователя
Стаж: 8 лет 7 месяцев
Сообщений: 1286
Спасибок: 3420
Лайков: 7
пишите комментарии, если вы не пиндосы и не грузины, то должны возникнуть противоречия и возмущения. очень интересна реакция.
Не в сети
Профиль  
 Добавлено: 2011-08-29 12:25 (спустя 2 дня 17 часов)
Стаж: 7 лет 2 месяца
Сообщений: 10
Давно необходимо снять фильм о данной ситуации глазами России и заткнуть за пояс этих ср...ых америкосов!!!!
Не в сети
Профиль  
 Добавлено: 2011-09-03 12:23 (спустя 4 дня)
Аватара пользователя
Стаж: 7 лет 9 месяцев
Сообщений: 8
Спасибок: 94
А жевание галстука присутствует?

У русских военных вместо АК-74 по старой голливудской традиции АК-47.
Не в сети
Профиль  
 Добавлено: 2011-10-08 18:58 (спустя 1 месяц 5 дней)
Стаж: 7 лет 8 месяцев
Сообщений: 105

Олег Карманов:

А жевание галстука присутствует?

У русских военных вместо АК-74 по старой голливудской традиции АК-47.
да, присутствует)
суть фильма : показать какие русские плохие, и убедить людей в том что мы начали войну в южной осетии...
Не в сети
Профиль  
 Добавлено: 2011-10-08 19:21 (спустя 23 минуты)
Top-releaser
Аватара пользователя
Стаж: 8 лет 7 месяцев
Сообщений: 1286
Спасибок: 3420
Лайков: 7

rekadook:

Олег Карманов:

А жевание галстука присутствует?

У русских военных вместо АК-74 по старой голливудской традиции АК-47.
да, присутствует)
суть фильма : показать какие русские плохие, и убедить людей в том что мы начали войну в южной осетии...
Это и так ясно, я его даже смотреть не стал, достаточно было посмотреть кто изготовил фильм. Хотя, кто знает, может и нам в новостях показывают только то, что нам хочется видеть :ne_znayu:
Не в сети
Профиль  
 Добавлено: 2011-10-28 00:39 (спустя 19 дней)
Аватара пользователя
Стаж: 7 лет
Сообщений: 6
Кстати у нас уже давно снят фильм ответ, причем не плохой. "Олимпиус инферно" называется!))) 2009 год выпуска!)))
Не в сети
Профиль  
 Добавлено: 2011-12-30 14:02 (спустя 2 месяца 2 дня)
Модератор
Аватара пользователя
Стаж: 8 лет
Сообщений: 1991
Спасибок: 129862
Лайков: 20
Давайте под Новый Год будем говорить и думать только о приятном!
Всех с Новым Годом!
_________________
Себе ты можешь не качать, но раздавать другим обязан!
Не в сети
Профиль  
 Добавлено: 2012-01-04 11:50 (спустя 4 дня)
Аватара пользователя
Стаж: 8 лет 3 месяца
Возраст: 43
Сообщений: 3290
Спасибок: 21012
Лайков: 3
Всех с Новым Годом!!!
По просьбе автора тему открываю. Если будете в коментариях сильно ругаться, придется опять закрыть :(
_________________
Изображение
Не в сети
Профиль  
 Добавлено: 2012-01-04 19:27 (спустя 7 часов)
Аватара пользователя
Стаж: 4 года 11 месяцев
Сообщений: 67
скоро выходит отечественный фильм вроде как в августе 8 будет называться! спец эфекты там зачетные
Не в сети
Профиль  
 Добавлено: 2012-03-28 15:40 (спустя 2 месяца 23 дня)
Аватара пользователя
Стаж: 8 лет 7 месяцев
Сообщений: 165
Лайков: 6

андрэус:

скоро выходит отечественный фильм вроде как в августе 8 будет называться! спец эфекты там зачетные
ха ха вышел... сказка про дэбильного мальчика :-D
Не в сети
Профиль  
Начать новую темуОтветить на тему  [ Сообщений: 11 ] 
Вы не можете начинать темы
Вы не можете отвечать на сообщения
Вы не можете редактировать свои сообщения
Вы не можете удалять свои сообщения