Правила форума

Здесь находятся раздачи, на которых не было полного источника (сида) более месяца.
Вы можете вернуть релиз в соответствующий раздел, для этого напишите нам в специальной теме и встаньте на раздачу.
Новые релизы, повторяющие релизы в архиве, повторами не считаются.
Начать новую темуОтветить на тему  [ Сообщений: 2 ] 
Сообщения
 Добавлено: 2011-09-21 20:03
Модератор релиз-группы
Аватара пользователя
Стаж: 9 лет 1 месяц
Возраст: 97
Сообщений: 11659
Спасибок: 6532
Лайков: 269
Агент Джонни Инглиш / Johnny English

Изображение


Страна: Франция, Великобритания
Жанр: боевик, комедия, приключения
Год выпуска: 2003
Продолжительность: 01:27:25

Перевод: Профессиональный (полное дублирование)
Оригинальная звуковая дорожка
Режиссер: Питер Хауит / Peter Howitt

В ролях: Роуэн Эткинсон, Натали Имбрулья, Бен Миллер, Джон Малкович, Тим Пиготт-Смит, Кевин МакНэлли, Оливер Форд Дэвис, Дуглас МакФерран, Таша ди Вашконселуш, Грег Уайз

Описание:
История самого некомпетентного и недалекого Британского дипломата, которого только можно представить, которого ошибочно принимают за самого знаменитого и опасного шпиона Великобритании, Джонни Инглиша. Из-за этой путаницы герой оказывается вовлеченным в смертельную схватку с авторами очередного дьявольского плана.
Изображение
Качество: BDRip 1080p
Формат: MKV

Видео: 1920x1040, 23.976fps, x264, 9225 kbps
Аудио: (RUS) AC-3 5.1, 48 kHz, 16 bits, 384 kbps
Аудио: (ENG) DTS 5.1, 48 kHz, 24 bits, 1510 kbps
Cубтитры: русские, английские
скриншоты
Изображение

Изображение

Изображение

Изображение
Свернуть
Mi
Format : Matroska
Format version : Version 2
File size : 6.79 GiB
Duration : 1h 27mn
Overall bit rate : 11.1 Mbps
Encoded date : UTC 2011-09-18 06:18:11
Writing application : mkvmerge v4.9.1 ('Ich will') сборка от Jul 11 2011 23:53:15
Writing library : libebml v1.2.1 + libmatroska v1.1.1

Video
ID : 1
Format : AVC
Format/Info : Advanced Video Codec
Format profile : High@L4.1
Format settings, CABAC : Yes
Format settings, ReFrames : 4 frames
Codec ID : V_MPEG4/ISO/AVC
Duration : 1h 27mn
Bit rate : 9 225 Kbps
Width : 1 920 pixels
Height : 1 040 pixels
Display aspect ratio : 16:9
Frame rate : 23.976 fps
Color space : YUV
Chroma subsampling : 4:2:0
Bit depth : 8 bits
Scan type : Progressive
Bits/(Pixel*Frame) : 0.193
Stream size : 5.50 GiB (81%)
Writing library : x264 core 116 r2074 2641b9e
Encoding settings : cabac=1 / ref=4 / deblock=1:0:0 / analyse=0x3:0x133 / me=umh / subme=7 / psy=1 / psy_rd=1.00:0.00 / mixed_ref=1 / me_range=16 / chroma_me=1 / trellis=1 / 8x8dct=1 / cqm=0 / deadzone=21,11 / fast_pskip=0 / chroma_qp_offset=-2 / threads=12 / sliced_threads=0 / nr=0 / decimate=1 / interlaced=0 / bluray_compat=0 / constrained_intra=0 / bframes=3 / b_pyramid=2 / b_adapt=2 / b_bias=0 / direct=3 / weightb=1 / open_gop=0 / weightp=2 / keyint=250 / keyint_min=23 / scenecut=40 / intra_refresh=0 / rc_lookahead=50 / rc=2pass / mbtree=1 / bitrate=9225 / ratetol=1.0 / qcomp=0.60 / qpmin=0 / qpmax=69 / qpstep=4 / cplxblur=20.0 / qblur=0.5 / ip_ratio=1.40 / aq=1:1.00
Language : English

Audio #1
ID : 2
Format : AC-3
Format/Info : Audio Coding 3
Mode extension : CM (complete main)
Codec ID : A_AC3
Duration : 1h 27mn
Bit rate mode : Constant
Bit rate : 384 Kbps
Channel(s) : 6 channels
Channel positions : Front: L C R, Side: L R, LFE
Sampling rate : 48.0 KHz
Bit depth : 16 bits
Compression mode : Lossy
Stream size : 240 MiB (3%)
Language : Russian

Audio #2
ID : 3
Format : DTS
Format/Info : Digital Theater Systems
Codec ID : A_DTS
Duration : 1h 27mn
Bit rate mode : Constant
Bit rate : 1 510 Kbps
Channel(s) : 6 channels
Channel positions : Front: L C R, Side: L R, LFE
Sampling rate : 48.0 KHz
Bit depth : 24 bits
Compression mode : Lossy
Stream size : 944 MiB (14%)
Language : English

Text #1
ID : 4
Format : UTF-8
Codec ID : S_TEXT/UTF8
Codec ID/Info : UTF-8 Plain Text
Language : Russian

Text #2
ID : 5
Format : UTF-8
Codec ID : S_TEXT/UTF8
Codec ID/Info : UTF-8 Plain Text
Language : English

Menu
00:00:00.000 : en:00:00:00.000
00:03:55.318 : en:00:03:55.318
00:08:12.867 : en:00:08:12.867
00:14:05.094 : en:00:14:05.094
00:17:51.404 : en:00:17:51.404
00:22:31.600 : en:00:22:31.600
00:26:45.729 : en:00:26:45.729
00:33:33.678 : en:00:33:33.678
00:39:12.433 : en:00:39:12.433
00:46:41.674 : en:00:46:41.674
00:49:05.734 : en:00:49:05.734
00:54:09.913 : en:00:54:09.913
00:57:37.746 : en:00:57:37.746
01:02:20.320 : en:01:02:20.320
01:04:59.020 : en:01:04:59.020
01:08:55.298 : en:01:08:55.298
01:13:08.384 : en:01:13:08.384
01:18:03.637 : en:01:18:03.637
01:21:19.708 : en:01:21:19.708
01:22:56.305 : en:01:22:56.305
Свернуть
_________________
Изображение
Не в сети
Профиль  
 Добавлено: 2011-10-07 16:31 (спустя 15 дней)
Стаж: 5 лет 2 месяца
Сообщений: 1
фильм супер!!!!!!! :) всем поклонникам мистера Бина рекомендую к просмотру!!!!!!!!!! ;;-))) ;;-))) ;;-)))
Не в сети
Профиль  
Начать новую темуОтветить на тему  [ Сообщений: 2 ] 
Вы не можете начинать темы
Вы не можете отвечать на сообщения
Вы не можете редактировать свои сообщения
Вы не можете удалять свои сообщения