Правила форума

Здесь находятся раздачи, на которых не было полного источника (сида) более месяца.
Вы можете вернуть релиз в соответствующий раздел, для этого напишите нам в специальной теме и встаньте на раздачу.
Новые релизы, повторяющие релизы в архиве, повторами не считаются.
Начать новую темуОтветить на тему  [ Сообщений: 3 ] 
Сообщения
 Добавлено: 2012-06-01 20:24
Аватара пользователя
Стаж: 7 лет 7 месяцев
Возраст: 28
Сообщений: 55
Спасибок: 65
Американский пирог 1 / American Pie 1



Изображение



Год выпуска: 1999
Страна: США
Жанр: мелодрама, комедия
Продолжительность: 96 мин. / 01:36.
Перевод: Профессиональный (Полное дублирование)
Слоган: «Boy gets girl. Boy loses girl. Boy gets pie.»
Режиссер: Пол Вайц, Крис Вайц
В ролях: Джейсон Биггз,Крис Клейн,Томас Иэн Николас,Эдди Кэй Томас,Мена Сувари,Тара Рид,Шеннон Элизабет,Элисон Хэннигэн,Шонн Уильям Скотт,Юджин Леви и другие.
Описание: На вечеринке четверо старшеклассников, Джим, Кевин, Финч и Оз, выясняют, что никто из них еще не имел сексуального опыта с девушками. Приятели считают, что с коллективной девственностью надо обязательно расстаться до того, как они переступят порог колледжа. На носу школьный выпускной бал, и у друзей осталось совсем мало времени на то, чтобы выполнить задуманное.
Качество: Blu-ray Rip
Формат: MKV
Видео кодек: H.264
Аудио кодек: AC3, DTS
Видео: H.264, 1920x1080 (16:9), 11.1 Mbps, Подробнее в медиа инфо.
Аудио#1: Russian (дублированый) AC3 ~384 kbps, 6 ch. | Dub
Аудио#2: Russian DTS ~1536 kbps, 6 ch. | AVO (Живов)
Аудио#3: English DTS ~1536 kbps, 6 ch.
Аудио#4: English AC3 ~224 kbps, 2 ch.| Commentary
Скриншоты
Изображение

Изображение

Изображение

Изображение
Свернуть
Mi
General
Unique ID : 229592279846201492235559084834806943646 (0xACB9DD5B613319D58841BE7A4F45CF9E)
Complete name : D:\Фильмы\Американский пирог(1,2,3)\American.Pie.1999.BluRay.1080p.DTS.x264.dxva.mkv
Format : Matroska
Format version : Version 2
File size : 9.80 GiB
Duration : 1h 35mn
Overall bit rate : 14.7 Mbps
Encoded date : UTC 2010-11-21 12:25:33
Writing application : mkvmerge v3.1.0 ('Happy up here') built on Jan 19 2010 12:09:24
Writing library : libebml v0.7.9 + libmatroska v0.8.1

Video
ID : 1
Format : AVC
Format/Info : Advanced Video Codec
Format profile : High@L4.1
Format settings, CABAC : Yes
Format settings, ReFrames : 4 frames
Codec ID : V_MPEG4/ISO/AVC
Duration : 1h 35mn
Bit rate : 11.1 Mbps
Width : 1 920 pixels
Height : 1 080 pixels
Display aspect ratio : 16:9
Frame rate : 24.000 fps
Color space : YUV
Chroma subsampling : 4:2:0
Bit depth : 8 bits
Scan type : Progressive
Bits/(Pixel*Frame) : 0.222
Stream size : 7.18 GiB (73%)
Title : x264 2 pass
Writing library : x264 core 96 r1602 69588a7
Encoding settings : cabac=1 / ref=5 / deblock=1:-3:-3 / analyse=0x3:0x113 / me=umh / subme=10 / psy=1 / psy_rd=1.00:0.00 / mixed_ref=1 / me_range=64 / chroma_me=1 / trellis=2 / 8x8dct=1 / cqm=0 / deadzone=21,11 / fast_pskip=0 / chroma_qp_offset=-2 / threads=12 / sliced_threads=0 / nr=0 / decimate=1 / interlaced=0 / constrained_intra=0 / bframes=8 / b_pyramid=1 / b_adapt=2 / b_bias=0 / direct=3 / weightb=1 / weightp=2 / keyint=250 / keyint_min=25 / scenecut=40 / intra_refresh=0 / rc_lookahead=40 / rc=2pass / mbtree=1 / bitrate=11050 / ratetol=1.5 / qcomp=0.70 / qpmin=10 / qpmax=51 / qpstep=4 / cplxblur=20.0 / qblur=0.5 / vbv_maxrate=40000 / vbv_bufsize=30000 / ip_ratio=1.40 / aq=1:1.00 / nal_hrd=none

Audio #1
ID : 2
Format : AC-3
Format/Info : Audio Coding 3
Mode extension : CM (complete main)
Codec ID : A_AC3
Duration : 1h 35mn
Bit rate mode : Constant
Bit rate : 384 Kbps
Channel(s) : 6 channels
Channel positions : Front: L C R, Side: L R, LFE
Sampling rate : 48.0 KHz
Bit depth : 16 bits
Compression mode : Lossy
Stream size : 263 MiB (3%)
Title : AC3 ~384 kbps, 6 ch. | Dub
Language : Russian

Audio #2
ID : 3
Format : DTS
Format/Info : Digital Theater Systems
Codec ID : A_DTS
Duration : 1h 35mn
Bit rate mode : Constant
Bit rate : 1 510 Kbps
Channel(s) : 6 channels
Channel positions : Front: L C R, Side: L R, LFE
Sampling rate : 48.0 KHz
Bit depth : 24 bits
Compression mode : Lossy
Stream size : 1.01 GiB (10%)
Title : DTS ~1536 kbps, 6 ch. | AVO (Живов)
Language : Russian

Audio #3
ID : 4
Format : DTS
Format/Info : Digital Theater Systems
Codec ID : A_DTS
Duration : 1h 35mn
Bit rate mode : Constant
Bit rate : 1 510 Kbps
Channel(s) : 6 channels
Channel positions : Front: L C R, Side: L R, LFE
Sampling rate : 48.0 KHz
Bit depth : 24 bits
Compression mode : Lossy
Stream size : 1.01 GiB (10%)
Title : DTS ~1536 kbps, 6 ch.
Language : English

Audio #4
ID : 5
Format : AC-3
Format/Info : Audio Coding 3
Mode extension : CM (complete main)
Codec ID : A_AC3
Duration : 1h 35mn
Bit rate mode : Constant
Bit rate : 224 Kbps
Channel(s) : 2 channels
Channel positions : Front: L R
Sampling rate : 48.0 KHz
Bit depth : 16 bits
Compression mode : Lossy
Stream size : 153 MiB (2%)
Title : AC3 ~224 kbps, 2 ch.| Commentary
Language : English

Text #1
ID : 6
Format : UTF-8
Codec ID : S_TEXT/UTF8
Codec ID/Info : UTF-8 Plain Text
Language : Russian

Text #2
ID : 7
Format : UTF-8
Codec ID : S_TEXT/UTF8
Codec ID/Info : UTF-8 Plain Text
Title : English subtitles
Language : English

Text #3
ID : 8
Format : UTF-8
Codec ID : S_TEXT/UTF8
Codec ID/Info : UTF-8 Plain Text
Title : German subtitles
Language : German

Menu
00:00:00.000 : :01
00:06:33.042 : :02
00:12:06.958 : :03
00:18:23.375 : :04
00:26:52.167 : :05
00:31:44.000 : :06
00:38:18.333 : :07
00:44:01.167 : :08
00:53:26.833 : :09
01:00:20.625 : :10
01:07:50.500 : :11
01:11:10.958 : :12
01:16:55.667 : :13
01:27:21.250 : :14
01:29:51.417 : :15
Свернуть





Последний раз редактировалось mmax99 2012-06-01 22:15, всего редактировалось 4 раз(а).
Не в сети
Профиль  
 Добавлено: 2012-06-02 00:20 (спустя 3 часа)
Аватара пользователя
Стаж: 7 лет 2 месяца
Сообщений: 7167
Спасибок: 81986
Лайков: 2438
:co_ol:
Не в сети
Профиль  
 Добавлено: 2012-06-04 09:47 (спустя 2 дня 9 часов)
Аватара пользователя
Стаж: 7 лет 3 месяца
Возраст: 34
Сообщений: 491
Спасибок: 812
Лайков: 44
Прибавьте скорости
Не в сети
Профиль  
Начать новую темуОтветить на тему  [ Сообщений: 3 ] 
Вы не можете начинать темы
Вы не можете отвечать на сообщения
Вы не можете редактировать свои сообщения
Вы не можете удалять свои сообщения