Правила форума

Здесь находятся раздачи, на которых не было полного источника (сида) более месяца.
Вы можете вернуть релиз в соответствующий раздел, для этого напишите нам в специальной теме и встаньте на раздачу.
Новые релизы, повторяющие релизы в архиве, повторами не считаются.
Начать новую темуОтветить на тему  [ 1 сообщение ] 
Сообщения
 Добавлено: 2011-04-25 19:22
Top-releaser
Аватара пользователя
Стаж: 7 лет 3 месяца
Возраст: 25
Сообщений: 1036
Спасибок: 2694
Лайков: 9
Аминь / Nude Nuns with Big Guns

«Эта сестра знает только отходную молитву.»

Изображение



Год выхода: 2010
Страна: США

Жанр: триллер
Продолжительность: 01:31:43
Перевод: Профессиональное (многоголосое)
Cубтитры: английские
Оригинальная аудиодорожка: английский

Режиссер: Джозеф Гузман
Сценарий: Джозеф Гузман, Роберт Джеймс Хэйес II
Продюсер: Джозеф Гузман, Роберт Джеймс Хэйес II, Maysam Mortazavi
Оператор: Эдвин М. Фигуроа
Композитор: Дэн Гросс

В ролях: Асун Ортега, Тони Эмбер Янг, Билл Оберст мл., Джессика Чорткофф, Моника Рамон, Саша Стубер, Макси Дж. Сантиллэн мл

Описание: Укрываясь за монастырской стеной от опасностей внешнего мира, сестра Сара не ожидала, что попадет прямо в лапы преступников в рясах: под прикрытием священного креста действовал законспирированный наркокартель. Контролируемые настоятелям «тихой обители» послушницы расфасовывали кокаин, а церковный автобус развозил товар по крупным дилерам.Однажды во время доставки товара в автобусе обнаружилась недостача… Подозреваемых в воровстве было лишь трое: двоих монашек бандиты застрелили на месте, а Сару наркобарон забрал с собой. Недолго думая, он накачал ее наркотиками и сдал в бордель. Едва не умерев от передозировки, избитая и изнасилованная Сара очнулась в какой-то лачуге и услышала глас божий, призывавший ее отомстить обидчикам…Исполняя Божью волю, сестра Сара собрала целый арсенал оружия и объявила войну своим мучителям, истре***я их одного за другим. Церковная наркомафия и связанная с ней банда «Los Muertos» поклялись оторвать голову непокорной монахине. Но с именем Господа на устах и с крупнокалиберным пистолетам в руке она сама устроит им внеочередной Судный день!

Внимание: Фильм содержит откровенные сцены и сцены насилия.

KinoPoisk.ru: 3.280
IMDb.com: 4.1/10

Pаздача группы:Изображение

Качество: BDRip 1080p
Формат: Mkv

Видео: AVC,1920x1080,8 723 Kbps,23.976 fps,0.175 bits
Аудио 1: Russian: 48 kHz, AC3, 2 ch, 192 kbps
Аудио 2: English: 48 kHz, DTS, 2.0 ~1536.00 kbps avg(6 ch)

Изображение

MediaInfo
General
Unique ID : 219674144381577727236660785189299805344 (0xA543B3863F7FB50D8B03D42FA29DDCA0)
Complete name : H:\ReLease\Amin.1080p.mkv
Format : Matroska
File size : 6.68 GiB
Duration : 1h 31mn
Overall bit rate : 10.4 Mbps
Encoded date : UTC 2011-04-23 13:58:37
Writing application : mkvmerge v4.5.0 ('Speed of Light') сборка от Feb 1 2011 02:10:32
Writing library : libebml v1.2.0 + libmatroska v1.1.0

Video
ID : 1
Format : AVC
Format/Info : Advanced Video Codec
Format profile : High@L4.1
Format settings, CABAC : Yes
Format settings, ReFrames : 4 frames
Muxing mode : Header stripping
Codec ID : V_MPEG4/ISO/AVC
Duration : 1h 31mn
Bit rate : 8 723 Kbps
Width : 1 920 pixels
Height : 1 080 pixels
Display aspect ratio : 16:9
Frame rate : 23.976 fps
Color space : YUV
Chroma subsampling : 4:2:0
Bit depth : 8 bits
Scan type : Progressive
Bits/(Pixel*Frame) : 0.175
Stream size : 5.45 GiB (82%)
Writing library : x264 core 115 r1937 aa21558
Encoding settings : cabac=1 / ref=4 / deblock=1:0:0 / analyse=0x3:0x133 / me=umh / subme=7 / psy=1 / psy_rd=1.00:0.00 / mixed_ref=1 / me_range=16 / chroma_me=1 / trellis=1 / 8x8dct=1 / cqm=0 / deadzone=21,11 / fast_pskip=0 / chroma_qp_offset=-2 / threads=12 / sliced_threads=0 / nr=0 / decimate=1 / interlaced=0 / bluray_compat=0 / constrained_intra=0 / bframes=3 / b_pyramid=2 / b_adapt=1 / b_bias=0 / direct=1 / weightb=1 / open_gop=0 / weightp=2 / keyint=250 / keyint_min=23 / scenecut=40 / intra_refresh=0 / rc_lookahead=40 / rc=2pass / mbtree=1 / bitrate=8723 / ratetol=1.0 / qcomp=0.60 / qpmin=0 / qpmax=69 / qpstep=4 / cplxblur=20.0 / qblur=0.5 / ip_ratio=1.40 / aq=1:1.00
Language : English

Audio #1
ID : 2
Format : AC-3
Format/Info : Audio Coding 3
Mode extension : CM (complete main)
Muxing mode : Header stripping
Codec ID : A_AC3
Duration : 1h 31mn
Bit rate mode : Constant
Bit rate : 192 Kbps
Channel(s) : 2 channels
Channel positions : Front: L R
Sampling rate : 48.0 KHz
Bit depth : 16 bits
Compression mode : Lossy
Stream size : 126 MiB (2%)
Language : Russian

Audio #2
ID : 3
Format : DTS
Format/Info : Digital Theater Systems
Muxing mode : Header stripping
Codec ID : A_DTS
Duration : 1h 31mn
Bit rate mode : Constant
Bit rate : 1 510 Kbps
Channel(s) : 2 channels
Channel positions : Front: L R
Sampling rate : 48.0 KHz
Bit depth : 24 bits
Compression mode : Lossy
Delay relative to video : 22ms
Stream size : 990 MiB (14%)
Language : English

Свернуть
Скриншоты
Изображение
Изображение
Изображение
Изображение
Изображение
Свернуть
Не в сети
Профиль  
Начать новую темуОтветить на тему  [ 1 сообщение ] 
Вы не можете начинать темы
Вы не можете отвечать на сообщения
Вы не можете редактировать свои сообщения
Вы не можете удалять свои сообщения