Правила форума

Здесь находятся раздачи, на которых не было полного источника (сида) более месяца.
Вы можете вернуть релиз в соответствующий раздел, для этого напишите нам в специальной теме и встаньте на раздачу.
Новые релизы, повторяющие релизы в архиве, повторами не считаются.
Начать новую темуОтветить на тему  [ 1 сообщение ] 
Сообщения
 Добавлено: 2011-07-05 19:27
Модератор релиз-группы
Аватара пользователя
Стаж: 9 лет 1 месяц
Возраст: 97
Сообщений: 11659
Спасибок: 6530
Лайков: 269
Артур. Идеальный миллионер / Arthur

Изображение


Год выпуска: 2011
Страна: США
Жанр: Комедия
Продолжительность: 01:49:58
Перевод: Любительский (двухголосый закадровый)
Оригинальная звуковая дорожка
Cубтитры: английские

Режиссёр: Джейсон Уайнер / Jason Winer
В ролях: Расселл Брэнд, Хелен Миррен, Грета Гервиг, Дженнифер Гарнер, Джеральдин Джеймс, Луис Гузман, Ник Нолти, Кристина Калф, Мерфи Гайер, Хосе Рамон Росарио
Описание: Артур Бэч, попадая в жизненные передряги, всегда полагался на две вещи: свое огромное состояние и здравомыслие собственной няньки Хобсон. Но теперь ему придется сделать выбор между браком по расчету, который еще более укрепит его финансовое положение, и неопределенным будущим с единственным, что нельзя купить за деньги, — прекрасной Наоми, любовью всей его жизни. Учитывая воодушевленность Наоми и нестандартную помощь Хобсон, Артур бросается в омут с головой в наиболее рискованное приключение всей своей жизни и наконец узнаёт, что значит быть настоящим мужчиной.

Изображение


Качество: BDRip
Формат: MKV
Видео кодек: MPEG4(AVC)
Аудио кодек: AC3 (Dolby Digital)
Видео: MPEG-4 AVC, 9827 Кбит/с, 1920x1080, 23.976 кадр/с
Аудио #1: Русский (AC3, 6 ch, 448 Кбит/с, 48 KHz) [Любительский (двухголосый закадровый)]
Аудио #2: Английский (DTS, 6 ch, 1536 Кбит/с, 48 KHz) [Оригинальная звуковая дорожка]
Cубтитры: английские
Скриншоты
Изображение

Изображение

Изображение

Изображение

Изображение
Свернуть

Mi
Format : Matroska
File size : 9.05 GiB
Duration : 1h 50mn
Overall bit rate : 11.8 Mbps
Encoded date : UTC 2011-07-02 16:34:49
Writing application : mkvmerge v4.8.0 ('I Got The...') сборка от May 24 2011 03:12:58
Writing library : libebml v1.2.0 + libmatroska v1.1.0

Video
ID : 1
Format : AVC
Format/Info : Advanced Video Codec
Format profile : High@L4.1
Format settings, CABAC : Yes
Format settings, ReFrames : 4 frames
Muxing mode : Container profile=Unknown@4.1
Codec ID : V_MPEG4/ISO/AVC
Duration : 1h 49mn
Bit rate : 9 581 Kbps
Nominal bit rate : 9 827 Kbps
Width : 1 920 pixels
Height : 1 080 pixels
Display aspect ratio : 16:9
Frame rate : 23.976 fps
Resolution : 8 bits
Colorimetry : 4:2:0
Scan type : Progressive
Bits/(Pixel*Frame) : 0.193
Stream size : 7.36 GiB (81%)
Writing library : x264 core 114 r1924 08d04a4
Encoding settings : cabac=1 / ref=4 / deblock=1:-3:-3 / analyse=0x3:0x113 / me=umh / subme=9 / psy=1 / psy_rd=1.05:0.10 / mixed_ref=1 / me_range=32 / chroma_me=1 / trellis=2 / 8x8dct=1 / cqm=2 / deadzone=21,11 / fast_pskip=0 / chroma_qp_offset=-2 / threads=12 / sliced_threads=0 / nr=0 / decimate=1 / interlaced=0 / constrained_intra=0 / bframes=6 / b_pyramid=2 / b_adapt=2 / b_bias=0 / direct=3 / weightb=1 / open_gop=0 / weightp=2 / keyint=250 / keyint_min=23 / scenecut=40 / intra_refresh=0 / rc_lookahead=50 / rc=2pass / mbtree=1 / bitrate=9827 / ratetol=1.0 / qcomp=0.70 / qpmin=1 / qpmax=63 / qpstep=4 / cplxblur=20.0 / qblur=0.5 / vbv_maxrate=40000 / vbv_bufsize=40000 / nal_hrd=none / ip_ratio=1.40 / aq=2:0.70

Audio #1
ID : 2
Format : AC-3
Format/Info : Audio Coding 3
Codec ID : A_AC3
Duration : 1h 50mn
Bit rate mode : Constant
Bit rate : 448 Kbps
Channel(s) : 6 channels
Channel positions : Front: L C R, Surround: L R, LFE
Sampling rate : 48.0 KHz
Stream size : 353 MiB (4%)
Title : Любительский двухголосый
Language : Russian

Audio #2
ID : 3
Format : DTS
Format/Info : Digital Theater Systems
Codec ID : A_DTS
Duration : 1h 50mn
Bit rate mode : Constant
Bit rate : 1 510 Kbps
Channel(s) : 6 channels
Channel positions : Front: L C R, Surround: L R, LFE
Sampling rate : 48.0 KHz
Resolution : 24 bits
Stream size : 1.16 GiB (13%)

Text
ID : 4
Format : UTF-8
Codec ID : S_TEXT/UTF8
Codec ID/Info : UTF-8 Plain Text
Свернуть
_________________
Изображение
Не в сети
Профиль  
Начать новую темуОтветить на тему  [ 1 сообщение ] 
Вы не можете начинать темы
Вы не можете отвечать на сообщения
Вы не можете редактировать свои сообщения
Вы не можете удалять свои сообщения