Правила форума

Здесь находятся раздачи, на которых не было полного источника (сида) более месяца.
Вы можете вернуть релиз в соответствующий раздел, для этого напишите нам в специальной теме и встаньте на раздачу.
Новые релизы, повторяющие релизы в архиве, повторами не считаются.
Начать новую темуОтветить на тему  [ Сообщений: 3 ] 
Сообщения
 Добавлено: 2013-12-07 10:21
Аватара пользователя
Стаж: 7 лет 2 месяца
Сообщений: 7167
Спасибок: 81994
Лайков: 2438
Астрал: Глава 2 / Insidious: Chapter 2

Изображение


Год выпуска: 2013
Страна: США
Слоган: «Он вернулся за тобой»
Жанр: ужасы, триллер
Продолжительность: 01:45:52
Перевод: Профессиональный (дубляж) + Оригинальная звуковая дорожка
Субтитры: Английские, Испанские

Режиссёр: Джеймс Ван
В ролях: Патрик Уилсон, Роуз Бирн, Лин Шэй, Тай Симпкинс, Барбара Херши, Стив Култер, Ли Уоннелл, Энгус Сэмпсон, Эндрю Эстор, Хэнк Харрис
Описание: Семья Ламберт стремится раскрыть тайну, из-за которой они оказались в опасной связи с миром духов…
Изображение

Качество: BDRip 720p
Формат: MKV
Видео кодек: H264 (AVC)
Аудио кодек: MP3 (MPEG1 Layer 3)
Видео: 1 280x536, 23.976 fps, 4 397 Kbps
Аудио #1: 48.0 KHz, 2 ch, 128 Kbps [Профессиональный (дубляж)] Звук с TS
Аудио #2: 48.0 KHz, 6 ch, 1 510 Kbps DTS [Оригинальная звуковая дорожка]
Субтитры: Английские, Испанские
Изображение
Скриншоты
Изображение

Изображение

Изображение

Изображение

Изображение
Свернуть
Знаете ли Вы, что...
Продюсеры арендовали на неделю одну постройку в Хайленд-Парке, чтобы преобразить ее в дом Элис Ренье. Большая часть сцен снималась в гостиной и в подвале двухэтажного особняка, который был выстроен в 1908 году. Огромный подвал был разделен на две части. Половина послужила подвалом дома Лоррейн Ламберт, вторая половина была задрапирована под читальню в доме Элис. Также съемки проходили в особняке 1910 года в районе Адамс-Норманди в центре Лос-Анджелеса. Пустующая постройка известна под названием резиденция Беккета.
Фильм снимался на протяжении 26 дней на реальных локациях в Лос-Анджелесе. Съемки начались в январе 2013 года в историческом поместье Смитов в районе Хайленд-Парка на северо-востоке Лос-Анджелеса. Этот отлично сохранившийся особняк Викторианской эпохи был представлен авторами фильма как дом Лоррейн Ламберт, в котором на время остановились ее сын Джош вместе со своей семьей. Двухэтажное здание было выстроено в 1887 году. Изначально дом принадлежал судье, который интересовался оккультизмом и даже написал книгу на эту тему.
Фильм снимали на камеру Arri Alexa.
Когда Спекс и Такер входят в дом Элизы, на стене висит рисунок африканских племен. Точно такой же рисунок можно заметить в фильмах «Паранормальное явление 2» (2010) и «Паранормальное явление 3» (2011).
Большая часть фильма была снята в больнице Linda Vista Community Hospital, в которой также снимались сцены в заброшенной больнице. Съемки велись на двух этажах. На одном снимались сцены флешбэков, на другом — эпизоды, происходящие в наше время. Здание оказалось достаточно вместительным, и рабочие смогли преобразить некоторые помещения в комнаты, совершенно не относящиеся к здравоохранению (отделение полиции, столовая в доме Лоррейн, спальня Кали и Место дальностей).
Режиссера Джеймса Вана можно заметить на обоях на рабочем столе компьютера вместе со Спексом и Такером.
Одним из самых интересных элементов реквизита, разработанным специально для фильма, стали детские ходунки младшей дочери. В эти ходунки по сюжету вселяется нечистая сила, и они оживают. Пришлось снабдить их пультом дистанционного управления, чтобы можно было ими управлять. Ходунки ездили сами по себе, зажигались лампочки, звонили колокольчики, свистели свистки.

Ошибки в фильме

Когда Джош кладет лишившуюся сознания Ринэй на диван, она лежит лицом вверх. В следующем кадре ее голова повернута в сторону.
Свернуть
MI
General
Unique ID : 194473764990284173744879755759591235503 (0x924E48E4ABECCF9B9DD3F7E27C4A1FAF)
Complete name : Астрал. Глава 2. 2013.mkv
Format : Matroska
Format version : Version 4 / Version 2
File size : 4.46 GiB
Duration : 1h 45mn
Overall bit rate : 6 033 Kbps
Encoded date : UTC 2013-12-06 21:28:07
Writing application : mkvmerge v6.1.0 ('Old Devil') built on Mar 4 2013 09:10:42
Writing library : libebml v1.3.0 + libmatroska v1.4.0

Video
ID : 1
Format : AVC
Format/Info : Advanced Video Codec
Format profile : High@L4.1
Format settings, CABAC : Yes
Format settings, ReFrames : 5 frames
Codec ID : V_MPEG4/ISO/AVC
Duration : 1h 45mn
Bit rate : 4 397 Kbps
Width : 1 280 pixels
Height : 536 pixels
Display aspect ratio : 2.40:1
Frame rate : 23.976 fps
Color space : YUV
Chroma subsampling : 4:2:0
Bit depth : 8 bits
Scan type : Progressive
Bits/(Pixel*Frame) : 0.267
Stream size : 3.16 GiB (71%)
Writing library : x264 core 140 r2377 1ca7bb9
Encoding settings : cabac=1 / ref=5 / deblock=1:0:0 / analyse=0x3:0x133 / me=umh / subme=7 / psy=1 / psy_rd=1.00:0.00 / mixed_ref=1 / me_range=16 / chroma_me=1 / trellis=1 / 8x8dct=1 / cqm=0 / deadzone=21,11 / fast_pskip=0 / chroma_qp_offset=-2 / threads=12 / lookahead_threads=2 / sliced_threads=0 / nr=0 / decimate=1 / interlaced=0 / bluray_compat=0 / constrained_intra=0 / bframes=3 / b_pyramid=2 / b_adapt=1 / b_bias=0 / direct=1 / weightb=1 / open_gop=0 / weightp=2 / keyint=250 / keyint_min=23 / scenecut=40 / intra_refresh=0 / rc_lookahead=40 / rc=2pass / mbtree=1 / bitrate=4397 / ratetol=1.0 / qcomp=0.60 / qpmin=0 / qpmax=69 / qpstep=4 / cplxblur=20.0 / qblur=0.5 / ip_ratio=1.40 / aq=1:1.00
Language : English
Default : Yes
Forced : No

Audio #1
ID : 2
Format : MPEG Audio
Format version : Version 1
Format profile : Layer 3
Mode : Joint stereo
Mode extension : MS Stereo
Codec ID : A_MPEG/L3
Codec ID/Hint : MP3
Duration : 1h 45mn
Bit rate mode : Constant
Bit rate : 128 Kbps
Channel(s) : 2 channels
Sampling rate : 48.0 KHz
Compression mode : Lossy
Stream size : 96.9 MiB (2%)
Title : russkij
Language : Russian
Default : Yes
Forced : No

Audio #2
ID : 3
Format : DTS
Format/Info : Digital Theater Systems
Codec ID : A_DTS
Duration : 1h 45mn
Bit rate mode : Constant
Bit rate : 1 510 Kbps
Channel(s) : 6 channels
Channel positions : Front: L C R, Side: L R, LFE
Sampling rate : 48.0 KHz
Bit depth : 24 bits
Compression mode : Lossy
Stream size : 1.12 GiB (25%)
Language : English
Default : No
Forced : No

Text #1
ID : 4
Format : UTF-8
Codec ID : S_TEXT/UTF8
Codec ID/Info : UTF-8 Plain Text
Title : English
Language : English
Default : No
Forced : No

Text #2
ID : 5
Format : UTF-8
Codec ID : S_TEXT/UTF8
Codec ID/Info : UTF-8 Plain Text
Title : English - SDH
Language : English
Default : No
Forced : No

Menu
00:00:00.000 : en:00:00:00.000
00:12:45.890 : en:00:12:45.890
00:22:22.967 : en:00:22:22.967
00:26:03.228 : en:00:26:03.228
00:30:09.224 : en:00:30:09.224
00:37:31.583 : en:00:37:31.583
00:42:46.314 : en:00:42:46.314
00:48:49.468 : en:00:48:49.468
00:56:11.702 : en:00:56:11.702
00:59:41.661 : en:00:59:41.661
01:05:57.579 : en:01:05:57.579
01:14:33.344 : en:01:14:33.344
01:21:37.351 : en:01:21:37.351
01:27:31.413 : en:01:27:31.413
01:33:33.858 : en:01:33:33.858
01:38:59.433 : en:01:38:59.433
Свернуть
 MiSkam и rotametr нравится это.
Не в сети
Профиль  
 Добавлено: 2013-12-10 22:24 (спустя 3 дня)
Стаж: 7 лет 8 месяцев
Возраст: 26
Сообщений: 37
От первого фильма чем отличается?
Не в сети
Профиль  
 Добавлено: 2013-12-16 16:32 (спустя 5 дней)
Стаж: 2 года 11 месяцев
Сообщений: 9
Веселенький такой)
Не в сети
Профиль  
Начать новую темуОтветить на тему  [ Сообщений: 3 ] 
Вы не можете начинать темы
Вы не можете отвечать на сообщения
Вы не можете редактировать свои сообщения
Вы не можете удалять свои сообщения