Правила форума

Здесь находятся раздачи, на которых не было полного источника (сида) более месяца.
Вы можете вернуть релиз в соответствующий раздел, для этого напишите нам в специальной теме и встаньте на раздачу.
Новые релизы, повторяющие релизы в архиве, повторами не считаются.
Начать новую темуОтветить на тему  [ Сообщений: 3 ] 
Сообщения
 Добавлено: 2014-03-04 17:19
Top-releaser
Аватара пользователя
Стаж: 8 лет 9 месяцев
Сообщений: 479
Спасибок: 20187
Лайков: 16
Изображение

Август

August: Osage County


«Misery loves family»

Год выпуска: 2013
Страна: Изображение США; Jean Doumanian Productions
Жанр: Драма
Продолжительность: 02:00:49
Перевод: Профессиональный (дублированный) [Лицензия], Оригинал
Субтитры: Английские

Режиссёр: Джон Уэллс / John Wells

В ролях: Мэрил Стрип, Джулия Робертс, Джулианна Николсон, Марго Мартиндейл, Эбигейл Бреслин, Эван МакГрегор, Джульетт Льюис, Дермот Малруни, Сэм Шепард, Бенедикт Камбербэтч

Описание: В городе Талса, штат Оклахома, в отчий дом съезжаются члены большой семьи Уэстонов. Случилось несчастье и три дочери Барбара, Карен и Иви, их мать Виолетта, тетя Метти Фей, а также их мужья, дети и ухажеры собираются под одной крышей, пьют виски и выясняют отношения, обвиняя друг друга в предательствах, подавленных чувствах и изломанных судьбах. У каждого есть свой скелет в шкафу и все тайное, что обычно скрывается за фасадом благополучного дома, становится явным.


Качество: BDRip 1080p R5
Формат: MKV

Видео: AVC at 10,1 Мбит/сек, 1920 x 808 (2.376) at 24.000 fps

Аудио 1: DTS at 1510 Кбит/сек, 6 канала(ов), 48,0 КГц [Дубляж]
Аудио 2: DTS at 1510 Кбит/сек, 6 канала(ов), 48,0 КГц [Оригинал]
Изображение
MediaInfo

Общее
Уникальный идентификатор : 210352910718141814933134543676654742530 (0x9E407F390A30E318BA584FF1A2FBEC02)
Полное имя : C:\Users\Домашний\Desktop\August.Osage.County.2013.1080p.BDRip..mkv
Формат : Matroska
Версия формата : Version 2
Размер файла : 11,3 Гбайт
Продолжительность : 2 ч. 0 м.
Общий поток : 13,4 Мбит/сек
Дата кодирования : UTC 2014-03-04 01:48:01
Программа кодирования : mkvmerge v5.2.0 ('I can't explain') built on Dec 18 2011 18:12:03
Библиотека кодирования : libebml v1.2.3 + libmatroska v1.3.0

Видео
Идентификатор : 1
Формат : AVC
Формат/Информация : Advanced Video Codec
Профиль формата : High@L4.1
Параметр CABAC формата : Да
Параметр ReFrames формата : 5 кадров
Идентификатор кодека : V_MPEG4/ISO/AVC
Продолжительность : 2 ч. 0 м.
Битрейт : 10,1 Мбит/сек
Ширина : 1920 пикселей
Высота : 808 пикселей
Соотношение сторон : 2,40:1
Режим частоты кадров : Постоянный
Частота кадров : 24,000 кадра/сек
Цветовое пространство : YUV
Субдискретизация насыщенности : 4:2:0
Битовая глубина : 8 бит
Тип развёртки : Прогрессивная
Бит/(Пиксели*Кадры) : 0.271
Размер потока : 8,53 Гбайт (75%)
Язык : English
Default : Да
Forced : Нет

Аудио #1
Идентификатор : 2
Формат : DTS
Формат/Информация : Digital Theater Systems
Режим : 16
Параметр Endianness формата : Big
Идентификатор кодека : A_DTS
Продолжительность : 2 ч. 0 м.
Вид битрейта : Постоянный
Битрейт : 1509 Кбит/сек
Каналы : 6 каналов
Расположение каналов : Front: L C R, Side: L R, LFE
Частота : 48,0 КГц
Битовая глубина : 16 бит
Метод сжатия : С потерями
Размер потока : 1,27 Гбайт (11%)
Заголовок : DUB
Язык : Russian
Default : Да
Forced : Нет

Аудио #2
Идентификатор : 3
Формат : DTS
Формат/Информация : Digital Theater Systems
Режим : 16
Параметр Endianness формата : Big
Идентификатор кодека : A_DTS
Продолжительность : 2 ч. 0 м.
Вид битрейта : Постоянный
Битрейт : 1509 Кбит/сек
Каналы : 6 каналов
Расположение каналов : Front: L C R, Side: L R, LFE
Частота : 48,0 КГц
Битовая глубина : 16 бит
Метод сжатия : С потерями
Размер потока : 1,27 Гбайт (11%)
Язык : English
Default : Нет
Forced : Нет

Текст
Идентификатор : 4
Формат : UTF-8
Идентификатор кодека : S_TEXT/UTF8
Идентификатор кодека/Информация : UTF-8 Plain Text
Язык : English
Default : Нет
Forced : Нет

Меню
00:00:00.000 : en:00:00:00.000
00:07:14.833 : en:00:07:14.833
00:13:55.583 : en:00:13:55.583
00:25:15.833 : en:00:25:15.833
00:33:02.167 : en:00:33:02.167
00:40:18.167 : en:00:40:18.167
00:47:25.250 : en:00:47:25.250
00:58:19.417 : en:00:58:19.417
01:08:45.625 : en:01:08:45.625
01:18:35.833 : en:01:18:35.833
01:29:46.125 : en:01:29:46.125
01:38:34.542 : en:01:38:34.542
01:44:39.458 : en:01:44:39.458
01:49:44.667 : en:01:49:44.667
01:55:27.833 : en:01:55:27.833


Свернуть
Скриншоты

Изображение
Изображение
Изображение
Изображение
Свернуть
_________________
Изображение
Изображение
Не в сети
Профиль  
 Добавлено: 2014-03-04 17:38 (спустя 18 минут)
Аватара пользователя
Стаж: 9 лет 1 месяц
Сообщений: 7922
Спасибок: 122118
Лайков: 1191
Сцена.
при появлении лучшего будет поглощен
В сети
Профиль  
 Добавлено: 2014-03-05 00:39 (спустя 7 часов)
Аватара пользователя
Стаж: 9 лет 1 месяц
Сообщений: 7922
Спасибок: 122118
Лайков: 1191
http://nnportal.org/tracker/zarubejnoe- ... l#p5951346
В сети
Профиль  
Начать новую темуОтветить на тему  [ Сообщений: 3 ] 
Вы не можете начинать темы
Вы не можете отвечать на сообщения
Вы не можете редактировать свои сообщения
Вы не можете удалять свои сообщения