Правила форума

Здесь находятся раздачи, на которых не было полного источника (сида) более месяца.
Вы можете вернуть релиз в соответствующий раздел, для этого напишите нам в специальной теме и встаньте на раздачу.
Новые релизы, повторяющие релизы в архиве, повторами не считаются.
Начать новую темуОтветить на тему  [ Сообщений: 2 ] 
Сообщения
 Добавлено: 2012-01-22 09:56
Модератор релиз-группы
Аватара пользователя
Стаж: 9 лет 1 месяц
Возраст: 97
Сообщений: 11659
Спасибок: 6532
Лайков: 269
Баки Ларсон: Рожденный быть звездой / Bucky Larson: Born to Be a Star

Изображение

Страна: США
Жанр: комедия
Год выпуска: 2011
Продолжительность: 1:36:49
Перевод: Профессиональный (многоголосый) лицензия
Оригинальная аудиодорожка
Cубтитры: русский (форсированные)

Режиссер: Том Брэди / Tom Brady

В ролях: Ник Свардсон, Кристина Риччи, Дон Джонсон, Стивен Дорфф, Идо Муссари, Кевин Нилон, Эдвард Херрманн, Мириам Флинн, Марио Джойнер, Tyler Spindel...

Описание: Что может быть прекрасней, если сын решит пойти по стопам своих родителей. Вот и заурядный ботаник с севера штата Айова едет в Голливуд для того, чтобы продолжить семейное дело… стать звездой фильмов для взрослых...


Изображение
Качество: BDRip 1080p
Фортам: MKV
Видео: MPEG-4 AVC Video / 11.4 Mbps / 1920 x 1036 p / 23.976 fps / 1.853:1 / High Profile 4.1
Аудио: Dolby Digital Audio Russian 5.1 / 48 kHz / 384 kbps
Аудио: DTS Audio English 5.1 / 48 kHz / 1509 kbps / 24-bit
скриншоты
Изображение

Изображение

Изображение

Изображение
Свернуть
Mi
Format : Matroska
File size : 9.01 GiB
Duration : 1h 36mn
Overall bit rate : 13.3 Mbps
Movie name : Bucky.Larson.Born.To.Be.A.Star.2011.BluRay.1080p.x264.DTS.MySilu [rutracker.org]
Encoded date : UTC 2012-01-21 11:47:03
Writing application : mkvmerge v4.9.1 ('Ich will') сборка от Jul 11 2011 23:53:15
Writing library : libebml v1.2.1 + libmatroska v1.1.1

Video
ID : 1
Format : AVC
Format/Info : Advanced Video Codec
Format profile : High@L4.1
Format settings, CABAC : Yes
Format settings, ReFrames : 4 frames
Muxing mode : Container profile=Unknown@4.1
Codec ID : V_MPEG4/ISO/AVC
Duration : 1h 36mn
Bit rate : 11.4 Mbps
Width : 1 920 pixels
Height : 1 036 pixels
Display aspect ratio : 1.853
Frame rate : 23.976 fps
Color space : YUV
Chroma subsampling : 4:2:0
Bit depth : 8 bits
Scan type : Progressive
Bits/(Pixel*Frame) : 0.240
Stream size : 7.55 GiB (84%)
Title : Bucky.Larson.Born.To.Be.A.Star.2011.BluRay.1080p.x264.DTS.MySilu
Writing library : x264 core 120 r2120 0c7dab9
Encoding settings : cabac=1 / ref=4 / deblock=1:-2:-2 / analyse=0x3:0x113 / me=umh / subme=10 / psy=1 / psy_rd=1.20:0.20 / mixed_ref=1 / me_range=32 / chroma_me=1 / trellis=2 / 8x8dct=1 / cqm=0 / deadzone=21,11 / fast_pskip=0 / chroma_qp_offset=-3 / threads=6 / sliced_threads=0 / nr=0 / decimate=0 / interlaced=0 / bluray_compat=0 / constrained_intra=0 / bframes=5 / b_pyramid=2 / b_adapt=2 / b_bias=0 / direct=3 / weightb=1 / open_gop=0 / weightp=2 / keyint=250 / keyint_min=2 / scenecut=40 / intra_refresh=0 / rc_lookahead=72 / rc=2pass / mbtree=1 / bitrate=11426 / ratetol=1.0 / qcomp=0.60 / qpmin=10 / qpmax=51 / qpstep=4 / cplxblur=20.0 / qblur=0.5 / vbv_maxrate=38000 / vbv_bufsize=38000 / nal_hrd=none / ip_ratio=1.40 / aq=1:1.00
Language : English

Audio #1
ID : 2
Format : AC-3
Format/Info : Audio Coding 3
Mode extension : CM (complete main)
Codec ID : A_AC3
Duration : 1h 36mn
Bit rate mode : Constant
Bit rate : 384 Kbps
Channel(s) : 6 channels
Channel positions : Front: L C R, Side: L R, LFE
Sampling rate : 48.0 KHz
Bit depth : 16 bits
Stream size : 266 MiB (3%)
Title : MVO
Language : Russian

Audio #2
ID : 3
Format : DTS
Format/Info : Digital Theater Systems
Codec ID : A_DTS
Duration : 1h 36mn
Bit rate mode : Constant
Bit rate : 1 510 Kbps
Channel(s) : 6 channels
Channel positions : Front: L C R, Side: L R, LFE
Sampling rate : 48.0 KHz
Bit depth : 24 bits
Stream size : 1.02 GiB (11%)
Language : English

Text #1
ID : 4
Format : UTF-8
Codec ID : S_TEXT/UTF8
Codec ID/Info : UTF-8 Plain Text
Title : forced
Language : Russian
Свернуть
_________________
Изображение
Не в сети
Профиль  
 Добавлено: 2012-01-29 02:49 (спустя 6 дней)
Стаж: 9 лет
Сообщений: 153
Спасибок: 49
пытались сделать добрую комедию, как добрая может и в чём то получилось, но как комедия, посмеялся только в одном моменте про газетчика, остальное ну никак, посмтреть можно но только если больше нечего стоящего, имхо 4/10.
Не в сети
Профиль  
Начать новую темуОтветить на тему  [ Сообщений: 2 ] 
Вы не можете начинать темы
Вы не можете отвечать на сообщения
Вы не можете редактировать свои сообщения
Вы не можете удалять свои сообщения