Правила форума

Здесь находятся раздачи, на которых не было полного источника (сида) более месяца.
Вы можете вернуть релиз в соответствующий раздел, для этого напишите нам в специальной теме и встаньте на раздачу.
Новые релизы, повторяющие релизы в архиве, повторами не считаются.
Начать новую темуОтветить на тему  [ Сообщений: 5 ] 
Сообщения
 Добавлено: 2011-11-26 14:35
Аватара пользователя
Стаж: 7 лет 2 месяца
Сообщений: 7167
Спасибок: 81976
Лайков: 2438
Байкеры

Biker Boyz

Изображение


Год выпуска: 2003
Страна: Изображение США
Слоган: «Survival of the fastest.»
Жанр: Боевик,криминал
Продолжительность: 01:50:00
Перевод: Профессиональный (многоголосый закадровый)

Режиссёр: Регги Рок Байтвуд
В ролях: Лоренс Фишбёрн, Дерек Люк, Орландо Джонс, Джимон Хунсу, Лиза Боне, Брендан Фер, Лоренц Тейт, Кид Рок, Рик Гонсалес, Миган Гуд
Описание: Снятый как современный мото-вестерн, этот фильм рассказывает о жизни темнокожих байкеров. Лоуренс Фишберн играет Мануэля Гелловея, реального персонажа, президента байкерского клуба Калифорнии и известного гонщика, выступающего под именем Король Кали. Он — лидер цивильного мотоклуба днем, и банды диких, затянутых в кожу, возмутителей спокойствия ночью.

Качество: BDRip
Формат: MKV
Видео кодек: H.264
Аудио кодек: AC3
Видео: 1280x720, 23.976 fps, 4 959Kbps
Аудио #1: 48 KHz, 6 Ch, 384Kbps [Профессиональный (многоголосый закадровый)]
Аудио #2: 48 KHz, 6 Ch, 576 Kbps [Оригинальная звуковая дорожка]
Субтитры: Английские
Изображение
Изображение

Скриншоты
Изображение
Изображение
Изображение
Изображение
Изображение
Изображение
Изображение
Изображение
Изображение
Изображение
Изображение
Свернуть
Знаете ли Вы, что...
Фильм основан на газетной заметке Майкла Гугиса, опубликованной в апреле 2000 года в New Times Los Angeles. Съемки картины начались 31 июля 2002 года в Лос-Анджелесе, а закончились 22 сентября того же года.
Свернуть
MediaInfo
General
Unique ID : 204469965911136266846049028335056415907 (0x99D37BA662FE6278AEF1195FADAF6CA3)
Complete name : Baikers.2003.mkv
Format : Matroska
Format version : Version 1
File size : 4.67 GiB
Duration : 1h 50mn
Overall bit rate : 6 039 Kbps
Movie name : -=HANSMER=- (HQ-Films.ws)
Encoded date : UTC 2008-06-25 21:37:18
Writing application : mkvmerge v2.2.0 ('Turn It On Again') built on Mar 4 2008 13:20:25
Writing library : libebml v0.7.7 + libmatroska v0.8.1

Video
ID : 1
Format : AVC
Format/Info : Advanced Video Codec
Format profile : High@L5.1
Format settings, CABAC : Yes
Format settings, ReFrames : 6 frames
Format settings, GOP : N=1
Codec ID : V_MPEG4/ISO/AVC
Duration : 1h 50mn
Bit rate : 5 075 Kbps
Width : 1 280 pixels
Height : 720 pixels
Display aspect ratio : 16:9
Frame rate : 23.976 fps
Color space : YUV
Chroma subsampling : 4:2:0
Bit depth : 8 bits
Scan type : Progressive
Bits/(Pixel*Frame) : 0.230
Stream size : 3.83 GiB (82%)
Title : Biker.Boyz.2003.720p.DTheater.x264-CtrlHD
Writing library : x264 core 60 r889M 2c59717
Encoding settings : cabac=1 / ref=6 / deblock=1:-3:-3 / analyse=0x3:0x133 / me=umh / subme=7 / brdo=1 / mixed_ref=1 / me_range=16 / chroma_me=1 / trellis=0 / 8x8dct=1 / cqm=2 / deadzone=6,6 / chroma_qp_offset=0 / threads=6 / nr=0 / decimate=1 / mbaff=0 / fgo=10 / bframes=5 / b_pyramid=1 / b_adapt=1 / b_bias=0 / direct=3 / wpredb=1 / bime=1 / keyint=250 / keyint_min=25 / scenecut=40(pre) / rc=2pass / bitrate=5075 / ratetol=1.0 / rceq='blurCplx^(1-qComp)' / qcomp=1.00 / qpmin=10 / qpmax=51 / qpstep=4 / cplxblur=20.0 / qblur=0.5 / ip_ratio=1.40 / pb_ratio=1.15 / aq=2:0.80
Language : English

Audio #1
ID : 2
Format : AC-3
Format/Info : Audio Coding 3
Mode extension : CM (complete main)
Codec ID : A_AC3
Duration : 1h 50mn
Bit rate mode : Constant
Bit rate : 384 Kbps
Channel(s) : 6 channels
Channel positions : Front: L C R, Side: L R, LFE
Sampling rate : 48.0 KHz
Bit depth : 16 bits
Compression mode : Lossy
Stream size : 304 MiB (6%)
Language : Russian

Audio #2
ID : 3
Format : AC-3
Format/Info : Audio Coding 3
Mode extension : CM (complete main)
Codec ID : A_AC3
Duration : 1h 50mn
Bit rate mode : Constant
Bit rate : 576 Kbps
Channel(s) : 6 channels
Channel positions : Front: L C R, Side: L R, LFE
Sampling rate : 48.0 KHz
Bit depth : 16 bits
Compression mode : Lossy
Stream size : 456 MiB (10%)
Language : English

Свернуть


Последний раз редактировалось di-ys1 2012-03-27 22:11, всего редактировалось 1 раз.
 MiSkam и rotametr нравится это.
Не в сети
Профиль  
 Добавлено: 2012-02-26 22:57 (спустя 3 месяца)
Аватара пользователя
Стаж: 8 лет 2 месяца
Возраст: 28
Сообщений: 22
Спасибок: 18
НАРОД ДАЙТЕ СКОРОСТИ ПЛИЗ !!!!!!! с качать не как не могу (((((
Не в сети
Профиль  
 Добавлено: 2012-03-02 20:25 (спустя 4 дня)
Аватара пользователя
Стаж: 8 лет 2 месяца
Возраст: 28
Сообщений: 22
Спасибок: 18
Дайте скорости !!!!!!!! Плиз
Не в сети
Профиль  
 Добавлено: 2012-04-03 16:56 (спустя 1 месяц)
Стаж: 7 лет 2 месяца
Сообщений: 93
Раздайте, народ.
Не в сети
Профиль  
 Добавлено: 2012-04-07 14:17 (спустя 3 дня)
Стаж: 5 лет 5 месяцев
Сообщений: 47
Лайков: 1
фильм классный
Не в сети
Профиль  
Начать новую темуОтветить на тему  [ Сообщений: 5 ] 
Вы не можете начинать темы
Вы не можете отвечать на сообщения
Вы не можете редактировать свои сообщения
Вы не можете удалять свои сообщения