Правила форума

Здесь находятся раздачи, на которых не было полного источника (сида) более месяца.
Вы можете вернуть релиз в соответствующий раздел, для этого напишите нам в специальной теме и встаньте на раздачу.
Новые релизы, повторяющие релизы в архиве, повторами не считаются.
Начать новую темуОтветить на тему  [ Сообщений: 3 ] 
Сообщения
 Добавлено: 2014-11-30 19:40
DVD Release Group
Аватара пользователя
Стаж: 7 лет 1 месяц
Сообщений: 3542
Спасибок: 246697
Лайков: 1016
Бегущий в лабиринте

The Maze Runner


Изображение


Год выпуска: 2014
Страна: США
Жанр: Фантастика, боевик, триллер, детектив
Продолжительность: 01:53:29
Перевод: Профессиональный (полное дублирование) чистый звук
Режиссер: Уэс Болл
В ролях: Дилан О’Брайэн, Кая Скоделарио, Уилл Поултер, Томас Сэнгстер, Патришия Кларксон, Ки Хонг Ли, Амл Амин, Блейк Купер, Крис Шеффилд, Карл Грин
Описание: Главный герой — подросток Томас, который просыпается в лифте, но ничего не помнит, кроме своего имени. Он оказывается среди 60 подростков, научившихся выживать в замкнутом пространстве. Раз в 30 дней прибывает новый мальчик. Группа ребят проживает в «Приюте» уже два года. Они кормятся тем, что удается вырастить на земле, и пытаются найти выход из лабиринта, окружающего их место жительства. Но однажды появляется девочка в состоянии комы…
Изображение
Sample:
http://sendfile.su/1054916
Качество: BDRip 720p
Формат: MKV
Видео кодек: H.264
Аудио кодек: AC3
Видео: 1280x536 23.98fps 5382kbps
Аудио:
Аудио Rus: 48kHz 2ch 384kbps
Аудио Eng: 48kHz 6ch 640kbps
"MediaInfo"
Формат : Matroska
Версия формата : Version 4 / Version 2
Размер файла : 5,07 Гбайт
Продолжительность : 1 ч. 53 м.
Общий поток : 6393 Кбит/сек
Дата кодирования : UTC 2014-11-30 16:36:21
Программа кодирования : mkvmerge v7.3.0 ('Nouages') 64bit built on Oct 22 2014 18:53:34
Библиотека кодирования : libebml v1.3.0 + libmatroska v1.4.1

Видео
Идентификатор : 1
Формат : AVC
Формат/Информация : Advanced Video Codec
Профиль формата : High@L4.1
Параметр CABAC формата : Да
Параметр ReFrames формата : 5 кадров
Идентификатор кодека : V_MPEG4/ISO/AVC
Продолжительность : 1 ч. 53 м.
Битрейт : 5382 Кбит/сек
Ширина : 1280 пикселей
Высота : 536 пикселей
Соотношение сторон : 2,40:1
Режим частоты кадров : Постоянный
Частота кадров : 23,976 кадра/сек
Цветовое пространство : YUV
Субдискретизация насыщенности : 4:2:0
Битовая глубина : 8 бит
Тип развёртки : Прогрессивная
Бит/(Пиксели*Кадры) : 0.327
Размер потока : 4,15 Гбайт (82%)
Библиотека кодирования : x264 core 142 r2479 dd79a61
Настройки программы : cabac=1 / ref=5 / deblock=1:0:0 / analyse=0x3:0x133 / me=umh / subme=7 / psy=1 / psy_rd=1.00:0.00 / mixed_ref=1 / me_range=16 / chroma_me=1 / trellis=1 / 8x8dct=1 / cqm=0 / deadzone=21,11 / fast_pskip=0 / chroma_qp_offset=-2 / threads=18 / lookahead_threads=3 / sliced_threads=0 / nr=0 / decimate=1 / interlaced=0 / bluray_compat=0 / constrained_intra=0 / bframes=3 / b_pyramid=2 / b_adapt=1 / b_bias=0 / direct=1 / weightb=1 / open_gop=0 / weightp=2 / keyint=250 / keyint_min=23 / scenecut=40 / intra_refresh=0 / rc_lookahead=40 / rc=2pass / mbtree=1 / bitrate=5382 / ratetol=1.0 / qcomp=0.60 / qpmin=0 / qpmax=69 / qpstep=4 / cplxblur=20.0 / qblur=0.5 / ip_ratio=1.40 / aq=1:1.00
Язык : English
Default : Да
Forced : Нет

Аудио #1
Идентификатор : 2
Формат : AC-3
Формат/Информация : Audio Coding 3
Расширение режима : CM (complete main)
Параметр Endianness формата : Big
Идентификатор кодека : A_AC3
Продолжительность : 1 ч. 53 м.
Вид битрейта : Постоянный
Битрейт : 384 Кбит/сек
Каналы : 2 канала
Расположение каналов : Front: L R
Частота : 48,0 КГц
Битовая глубина : 16 бит
Метод сжатия : С потерями
Задержка видео : 8 мс.
Размер потока : 312 Мбайт (6%)
Язык : Russian
Default : Да
Forced : Нет

Аудио #2
Идентификатор : 3
Формат : AC-3
Формат/Информация : Audio Coding 3
Расширение режима : CM (complete main)
Параметр Endianness формата : Big
Идентификатор кодека : A_AC3
Продолжительность : 1 ч. 53 м.
Вид битрейта : Постоянный
Битрейт : 640 Кбит/сек
Каналы : 6 каналов
Расположение каналов : Front: L C R, Side: L R, LFE
Частота : 48,0 КГц
Битовая глубина : 16 бит
Метод сжатия : С потерями
Размер потока : 519 Мбайт (10%)
Язык : English
Default : Нет
Forced : Нет

Меню
00:00:00.000 : en:00:00:00.000
00:03:12.651 : en:00:03:12.651
00:07:15.977 : en:00:07:15.977
00:10:25.250 : en:00:10:25.250
00:14:15.563 : en:00:14:15.563
00:17:21.249 : en:00:17:21.249
00:19:33.339 : en:00:19:33.339
00:23:21.025 : en:00:23:21.025
00:24:36.392 : en:00:24:36.392
00:28:13.108 : en:00:28:13.108
00:31:26.009 : en:00:31:26.009
00:34:12.050 : en:00:34:12.050
00:37:11.813 : en:00:37:11.813
00:41:00.875 : en:00:41:00.875
00:42:16.617 : en:00:42:16.617
00:45:47.453 : en:00:45:47.453
00:48:31.826 : en:00:48:31.826
00:52:57.800 : en:00:52:57.800
00:55:21.777 : en:00:55:21.777
00:57:58.809 : en:00:57:58.809
00:59:31.151 : en:00:59:31.151
01:01:35.275 : en:01:01:35.275
01:05:13.910 : en:01:05:13.910
01:08:42.410 : en:01:08:42.410
01:12:14.247 : en:01:12:14.247
01:14:22.833 : en:01:14:22.833
01:20:27.823 : en:01:20:27.823
01:22:25.649 : en:01:22:25.649
01:25:38.175 : en:01:25:38.175
01:29:41.585 : en:01:29:41.585
01:33:49.457 : en:01:33:49.457
01:36:43.256 : en:01:36:43.256
01:39:33.426 : en:01:39:33.426
01:43:05.596 : en:01:43:05.596
01:45:08.219 : en:01:45:08.219
01:46:12.658 : en:01:46:12.658
Свернуть

"Скриншоты"
Изображение
Изображение
Изображение
Свернуть
Не в сети
Профиль  
 Добавлено: 2014-12-06 12:39 (спустя 5 дней)
Стаж: 6 лет 8 месяцев
Сообщений: 19
Поверьте, как мог держался, но всё равно уснул.
Не в сети
Профиль  
 Добавлено: 2014-12-13 10:30 (спустя 6 дней)
Аватара пользователя
Стаж: 9 лет 1 месяц
Сообщений: 103
Спасибок: 224
Лайков: 1
Алан
Значит глянем перед сном ;;-)))
Не в сети
Профиль  
Начать новую темуОтветить на тему  [ Сообщений: 3 ] 
Вы не можете начинать темы
Вы не можете отвечать на сообщения
Вы не можете редактировать свои сообщения
Вы не можете удалять свои сообщения