Правила форума

Здесь находятся раздачи, на которых не было полного источника (сида) более месяца.
Вы можете вернуть релиз в соответствующий раздел, для этого напишите нам в специальной теме и встаньте на раздачу.
Новые релизы, повторяющие релизы в архиве, повторами не считаются.
Начать новую темуОтветить на тему  [ Сообщений: 2 ] 
Сообщения
 Добавлено: 2015-02-09 16:42
Модератор
Аватара пользователя
Стаж: 5 лет 8 месяцев
Сообщений: 6281
Спасибок: 17339
Лайков: 1633
Бёрдмэн
Birdman

Изображение
Год выпуска: 2014
Страна: США, Канада
Жанр: Драма, комедия
Продолжительность: 01:59:50
Перевод: Профессиональный (полное дублирование) Чистый звук
Режиссер: Алехандро Гонсалес Иньярриту
В ролях: Майкл Китон, Зак Галифианакис, Эдвард Нортон, Андреа Райзборо, Эми Райан, Эмма Стоун, Наоми Уоттс, Кенни Чин, Жамаль Гаррисон-Лоу, Джереми Шамос
Описание: В центре сюжета бывший актер, некогда сыгравший роль популярного супергероя Бёрдмэна, и теперь, переступая через свое эго, он решает принять участие в новой бродвейской постановке с целью вернуть себе былую славу, блеск и величие.
Изображение Изображение
Sample: http://sendfile.su/1081729
Качество: BDRip 1080p
Формат: MKV
Видео: MPEG-4 AVC, 8982 Кбит/с, 1920x1040
Аудио: Русский (АС3, 2 ch, 192 Кбит/с), английский (DTS, 6 ch, 1536 Кбит/с)
Награды
Оскар, 2015 год
Номинации (9):
Лучший фильм
Лучшая мужская роль (Майкл Китон)
Лучшая мужская роль второго плана (Эдвард Нортон)
Лучшая женская роль второго плана (Эмма Стоун)
Лучший режиссер (Алехандро Гонсалес Иньярриту)
Лучший сценарий
Лучшая работа оператора
Лучший звук
Лучший монтаж звука


Золотой глобус, 2015 год
Победитель (2):
Лучшая мужская роль (комедия или мюзикл) (Майкл Китон)
Лучший сценарий
Номинации (5):
Лучший фильм (комедия или мюзикл)
Лучшая мужская роль второго плана (Эдвард Нортон)
Лучшая женская роль второго плана (Эмма Стоун)
Лучший режиссер (Алехандро Гонсалес Иньярриту)
Лучший саундтрек


Британская академия, 2015 год
Номинации (10):
Лучший фильм
Лучшая мужская роль (Майкл Китон)
Лучшая мужская роль второго плана (Эдвард Нортон)
Лучшая женская роль второго плана (Эмма Стоун)
Лучший оригинальный сценарий
Лучшая работа оператора (Эммануэль Любецки)
Лучший звук
Лучший монтаж
Лучший саундтрек
Премия имени Дэвида Лина за достижения в режиссуре (Алехандро Гонсалес Иньярриту)


Премия Гильдии актеров, 2015 год
Победитель (1):
Лучший актерский состав
Номинации (3):
Лучшая мужская роль (Майкл Китон)
Лучшая женская роль второго плана (Эмма Стоун)
Лучшая мужская роль второго плана (Эдвард Нортон)


Венецианский кинофестиваль, 2014 год
Победитель (4):
Приз «Future Film Festival Digital Award»
Награда имени Назарено Таддеи
Leoncino d'Oro Agiscuola Award
Soundtrack Stars Award~Best Soundtrack
Номинации (1):
Золотой лев
Свернуть
MI
Общее
Уникальный идентификатор : 252918654547249661945429417434821752864 (0xBE465C6C5FF192E0AB61E1474B2CF820)
Полное имя : F:\Films\B1rdman.D.2014.BDRip.1080p.mkv
Формат : Matroska
Версия формата : Version 4 / Version 2
Размер файла : 8,90 Гбайт
Продолжительность : 1 ч. 59 м.
Общий поток : 10,7 Мбит/сек
Дата кодирования : UTC 2015-02-04 00:45:51
Программа кодирования : mkvmerge v6.9.1 ('Blue Panther') 64bit built on Apr 18 2014 18:23:38
Библиотека кодирования : libebml v1.3.0 + libmatroska v1.4.1

Видео
Идентификатор : 1
Формат : AVC
Формат/Информация : Advanced Video Codec
Профиль формата : High@L4.1
Параметр CABAC формата : Да
Параметр ReFrames формата : 4 кадра
Идентификатор кодека : V_MPEG4/ISO/AVC
Продолжительность : 1 ч. 59 м.
Битрейт : 8982 Кбит/сек
Ширина : 1920 пикселей
Высота : 1040 пикселей
Соотношение сторон : 1,85:1
Режим частоты кадров : Постоянный
Частота кадров : 23,976 кадра/сек
Цветовое пространство : YUV
Субдискретизация насыщенности : 4:2:0
Битовая глубина : 8 бит
Тип развёртки : Прогрессивная
Бит/(Пиксели*Кадры) : 0.188
Размер потока : 7,30 Гбайт (82%)
Библиотека кодирования : x264 core 144 r2525 40bb568
Настройки программы : cabac=1 / ref=4 / deblock=1:0:0 / analyse=0x3:0x133 / me=umh / subme=7 / psy=1 / psy_rd=1.00:0.00 / mixed_ref=1 / me_range=16 / chroma_me=1 / trellis=1 / 8x8dct=1 / cqm=0 / deadzone=21,11 / fast_pskip=0 / chroma_qp_offset=-2 / threads=18 / lookahead_threads=3 / sliced_threads=0 / nr=0 / decimate=1 / interlaced=0 / bluray_compat=0 / constrained_intra=0 / bframes=3 / b_pyramid=2 / b_adapt=1 / b_bias=0 / direct=1 / weightb=1 / open_gop=0 / weightp=2 / keyint=250 / keyint_min=23 / scenecut=40 / intra_refresh=0 / rc_lookahead=40 / rc=2pass / mbtree=1 / bitrate=8982 / ratetol=1.0 / qcomp=0.60 / qpmin=0 / qpmax=69 / qpstep=4 / cplxblur=20.0 / qblur=0.5 / ip_ratio=1.40 / aq=1:1.00
Язык : English
Default : Да
Forced : Нет

Аудио #1
Идентификатор : 2
Формат : AC-3
Формат/Информация : Audio Coding 3
Расширение режима : CM (complete main)
Параметр Endianness формата : Big
Идентификатор кодека : A_AC3
Продолжительность : 1 ч. 59 м.
Вид битрейта : Постоянный
Битрейт : 192 Кбит/сек
Каналы : 2 канала
Расположение каналов : Front: L R
Частота : 48,0 КГц
Битовая глубина : 16 бит
Метод сжатия : С потерями
Размер потока : 164 Мбайт (2%)
Язык : Russian
Default : Да
Forced : Нет

Аудио #2
Идентификатор : 3
Формат : DTS
Формат/Информация : Digital Theater Systems
Режим : 16
Параметр Endianness формата : Big
Идентификатор кодека : A_DTS
Продолжительность : 1 ч. 59 м.
Вид битрейта : Постоянный
Битрейт : 1509 Кбит/сек
Каналы : 6 каналов
Расположение каналов : Front: L C R, Side: L R, LFE
Частота : 48,0 КГц
Битовая глубина : 24 бит
Метод сжатия : С потерями
Размер потока : 1,26 Гбайт (14%)
Язык : English
Default : Нет
Forced : Нет

Меню
00:00:00.000 : en:00:00:00.000
00:03:29.084 : en:00:03:29.084
00:07:33.828 : en:00:07:33.828
00:09:08.506 : en:00:09:08.506
00:12:39.384 : en:00:12:39.384
00:16:53.429 : en:00:16:53.429
00:19:07.146 : en:00:19:07.146
00:20:22.096 : en:00:20:22.096
00:25:21.186 : en:00:25:21.186
00:31:45.028 : en:00:31:45.028
00:36:09.834 : en:00:36:09.834
00:37:12.772 : en:00:37:12.772
00:42:09.444 : en:00:42:09.444
00:48:49.802 : en:00:48:49.802
00:53:30.541 : en:00:53:30.541
00:58:31.341 : en:00:58:31.341
01:03:17.085 : en:01:03:17.085
01:08:29.147 : en:01:08:29.147
01:12:42.567 : en:01:12:42.567
01:17:01.450 : en:01:17:01.450
01:20:45.090 : en:01:20:45.090
01:25:13.984 : en:01:25:13.984
01:28:04.946 : en:01:28:04.946
01:33:22.472 : en:01:33:22.472
01:39:14.949 : en:01:39:14.949
01:43:10.726 : en:01:43:10.726
01:46:43.856 : en:01:46:43.856
01:52:16.855 : en:01:52:16.855
Свернуть
"Скриншоты"
ИзображениеИзображениеИзображениеИзображение
Свернуть
_________________
Изображение Изображение Изображение
Не в сети
Профиль  
 Добавлено: 2015-02-11 20:28 (спустя 2 дня 3 часа)
Аватара пользователя
Стаж: 6 лет 3 месяца
Возраст: 23
Сообщений: 352
Лайков: 4
50 на 50
ничего в этом фильме притягательного нет
_________________

Изображение
Не в сети
Профиль  
Начать новую темуОтветить на тему  [ Сообщений: 2 ] 
Вы не можете начинать темы
Вы не можете отвечать на сообщения
Вы не можете редактировать свои сообщения
Вы не можете удалять свои сообщения