Правила форума

Здесь находятся раздачи, на которых не было полного источника (сида) более месяца.
Вы можете вернуть релиз в соответствующий раздел, для этого напишите нам в специальной теме и встаньте на раздачу.
Новые релизы, повторяющие релизы в архиве, повторами не считаются.
Начать новую темуОтветить на тему  [ Сообщений: 2 ] 
Сообщения
 Добавлено: 2011-12-04 22:52
Аватара пользователя
Стаж: 5 лет 6 месяцев
Возраст: 30
Сообщений: 353
Спасибок: 7455
Без истерики! / Hysteria

Изображение


Год выпуска: 2011
Страна: Германия, Франция, Великобритания, Люксембург (arte France Cinema, Beachfront Films, by alternative pictures, Canal+ [fr], Chimera Films LLC, Cine Cinemas, Delux Productions, Film Fund Luxembourg, Forthcoming Productions, Informant Media, Lankn Media, Silver Reel, Tatfilm, The UK Film & TV Production Company PLC, WDR / Arte)
Слоган: «Правдивая история одного пикантного изобретения»
Жанр: мелодрама, комедия
Продолжительность: 01:35:07
Перевод: Профессиональный (дубляж)
Дублеры: Ирина Киреева, Диомид Виноградов, Никита Прозоровский, Василий Дахненко
Субтитры: Русские

Режиссёр: Таня Уэкслер / Tanya Wexler
Сценарист: Йон Лиза Дайер, Стивен Дайер, Howard Gensler
Продюсер: Трэйси Бекер, Джуди Каиро, Сара Кертис
Оператор: Шон Боббитт
Композитор: Кристиан Хенсон

В ролях: Фелисити Джонс, Мэгги Джилленхол, Хью Дэнси, Руперт Эверетт, Джонатан Прайс, Джемма Джонс, Анна Чэнселлор, Тобиаш Мензес, Шеридан Смит, Кейт Линдер...

Описание: Викторианская Англия, 1880 год. Выпускник медицинской школы Мортимер Грэнвиль устраивается на работу в кабинет доктора Далримпла, который славится на весь Лондон уникальным методом лечения «истерии» — женского перевозбуждения — с помощью интимного массажа. Популярность «ручного» метода Далримпла растет с астрономической скоростью, и справляться с наплывом страждущих пациенток становится все сложнее.
С помощью своего друга Эдмунда молодой и прогрессивный врач находит изящное решение проблемы: приятели изобретают элегантный электрический приборчик, который вполне может заменить золотые руки мистера Далрима. Известие о чудо-изобретении мгновенно распространяется среди лондонских дам…
Тем временем Мортимер влюбляется в Шарлотту, самую красивую, свободолюбивую и яркую дочь своего работодателя.

Доп.информация: Интервью с создателями и актёрами, Со сьёмочной площадки, Трейлер
Мировая премьера: 15 сентября 2011
Премьера в России: 17 ноября 2011, «Каравелла DDC»

Изображение Изображение Изображение

Качество: DVD9 R5
Формат: DVD Video
Видео кодек: MPEG2
Аудио кодек: AC3 (Dolby Digital)
Видео: PAL 16:9 (720x576(0.497)) MPEG Video, 25,000 кадр/сек, 5149 Кбит/сек
Аудио #1: Russian (Dolby AC3, 6 ch) 384 Кбит/сек, 48,0 КГц [Профессиональный (дубляж)]
Аудио #2: Russian (Dolby AC3, 2 ch) 192 Кбит/сек, 48,0 КГц [Профессиональный (дубляж)]
Субтитры: Русские

"DVDInfo"
Title:
Size: 6.93 Gb ( 7 263 106,00 KBytes ) - DVD-9
Enabled regions: 1, 2, 3, 4, 5, 6, 7, 8

VTS_01 :
Play Length: 00:00:01+01:35:07+00:00:01
Video: PAL 16:9 (720x576) VBR, Auto Letterboxed
Audio:
Russian (Dolby AC3, 6 ch)
Russian (Dolby AC3, 2 ch)
Subtitles:
Russian

VTS_02 :
Play Length: 00:00:01+00:00:05+00:00:13
Video: PAL 16:9 (720x576) VBR, Auto Letterboxed
Audio:
Russian (Dolby AC3, 6 ch)

VTS_03 :
Play Length: 00:00:01+01:08:50+00:00:01+00:00:01+00:16:46+00:00:01+00:00:01+00:02:02+00:00:01
Video: PAL 16:9 (720x576) VBR, Auto Letterboxed
Audio:
Russian (Dolby AC3, 2 ch)

VTS_04 :
Play Length: 00:00:16
Video: PAL 16:9 (720x576) VBR, Auto Letterboxed
Audio:
Russian (Dolby AC3, 2 ch)

VTS_05 :
Play Length: 00:00:13
Video: PAL 16:9 (720x576) VBR, Auto Letterboxed
Audio:
Russian (Dolby AC3, 2 ch)

VTS_06 :
Play Length: 00:01:03
Video: PAL 4:3 (720x576) VBR
Audio:
Russian (Dolby AC3, 2 ch)
Свернуть

"MediaInfo"
Общее
Полное имя : G:\Новинки 2011\Bez.isteriki.2011.D.DVD9\VIDEO_TS\VTS_01_2.VOB
Формат : MPEG-PS
Размер файла : 1024 Мбайт
Продолжительность : 24 м.
Общий поток : 5842 Кбит/сек

Видео
Идентификатор : 224 (0xE0)
Формат : MPEG Video
Версия формата : Version 2
Профиль формата : Main@Main
Параметр BVOP формата : Да
Параметр матрицы формата : Выборочная
Продолжительность : 24 м.
Вид битрейта : Переменный
Битрейт : 5149 Кбит/сек
Ширина : 720 пикселей
Высота : 576 пикселей
Соотношение сторон : 16:9
Частота кадров : 25,000 кадров/сек
Стандарт вещания : PAL
Цветовое пространство : YUV
Субдискретизация насыщенности : 4:2:0
Битовая глубина : 8 бит
Метод сжатия : С потерями
Бит/(Пиксели*Кадры) : 0.497
Размер потока : 903 Мбайт (88%)

Аудио #1
Идентификатор : 189 (0xBD)-128 (0x80)
Формат : AC-3
Формат/Информация : Audio Coding 3
Расширение режима : CM (complete main)
Режим смешивания : DVD-Video
Продолжительность : 6 м. 16 с.
Вид битрейта : Постоянный
Битрейт : 384 Кбит/сек
Каналы : 6 каналов
Расположение каналов : Front: L C R, Side: L R, LFE
Частота : 48,0 КГц
Битовая глубина : 16 бит
Метод сжатия : С потерями
Задержка видео : -536 мс.
Размер потока : 17,2 Мбайт (2%)

Аудио #2
Идентификатор : 189 (0xBD)-129 (0x81)
Формат : AC-3
Формат/Информация : Audio Coding 3
Расширение режима : CM (complete main)
Режим смешивания : DVD-Video
Продолжительность : 24 м.
Вид битрейта : Постоянный
Битрейт : 192 Кбит/сек
Каналы : 2 канала
Расположение каналов : Front: L R
Частота : 48,0 КГц
Битовая глубина : 16 бит
Метод сжатия : С потерями
Задержка видео : -536 мс.
Размер потока : 33,7 Мбайт (3%)

Текст
Идентификатор : 189 (0xBD)-32 (0x20)
Формат : RLE
Формат/Информация : Run-length encoding
Режим смешивания : DVD-Video

Свернуть


Скриншоты
Скриншоты меню
Изображение
Изображение
Изображение
Изображение
Свернуть
Изображение
Изображение
Изображение
Изображение
Изображение
Изображение
Изображение
Изображение
Свернуть


Изображение
Не в сети
Профиль  
 Добавлено: 2011-12-04 23:57 (спустя 1 час 4 минуты)
Top-releaser
Аватара пользователя
Стаж: 9 лет 1 месяц
Возраст: -22
Сообщений: 11257
Спасибок: 16493
Лайков: 11
влюбляется
Это у нас тоже теперь ругательное слово :-D
_________________
ИзображениеИзображение  "Freedom fighter, dissident and intelligent."
Изображение
Не в сети
Профиль  
Начать новую темуОтветить на тему  [ Сообщений: 2 ] 
Вы не можете начинать темы
Вы не можете отвечать на сообщения
Вы не можете редактировать свои сообщения
Вы не можете удалять свои сообщения