Правила форума

Здесь находятся раздачи, на которых не было полного источника (сида) более месяца.
Вы можете вернуть релиз в соответствующий раздел, для этого напишите нам в специальной теме и встаньте на раздачу.
Новые релизы, повторяющие релизы в архиве, повторами не считаются.
Начать новую темуОтветить на тему  [ Сообщений: 2 ] 
Сообщения
 Добавлено: 2011-07-30 11:22
ННПортал Юнайтед
Аватара пользователя
Стаж: 5 лет 8 месяцев
Сообщений: 1805
Спасибок: 4262
Лайков: 986
Без компромиссов / Blitz

Изображение


Год выпуска: 2011
Страна: Великобритания
Жанр: триллер, криминал
Продолжительность: 01:37:01
Перевод: Дублированный [Звук с TS]+Оригинал

Режиссёр: Эллиотт Лестер
Сценарист: Натан Паркер, Кен Бруен
Продюсер: Стив Чэсмэн, Зиги Камаса, Дональд Кушнер
Оператор: Роберт Харди
Композитор: Илан Эшкери
В ролях: Джейсон Стэтхэм, Пэдди Консидайн, Эйден Гиллен, Зэйв Эштон, Дэвид Моррисси, Ричард Ридделл, Дес Баррон, Джон Бертон, Тая Де Ла Круз, Набил Елухаби и др
Описание: Семь или восемь? Не в граммах, а в полицейских!.. Именно этим вопросом задается лондонский маньяк, решивший прославиться. Выбрав себе для первых полос таблоидов звучный псевдоним Блиц и вооружившись молотком, Барри Вайс выходит на улицы. И теперь главному герою придется спасать свою шкуру и пытаться остановить сумасшедшего убийцу…
Рейтинг MPAA: Рейтинг R (Подростки до 17 лет допускаются на фильм только в сопровождении одного из родителей)
Мировая премьера: 6 мая 2011
Премьера в России: 23 июня 2011
kinopoisk.ru: 6.728 (2 399)
imdb.com: 6.9 (1,345 votes)

Качество: BDRip 720р
Формат: MKV
Видео кодек: AVC
Аудио кодек: AC3 (Dolby Digital)
Видео: AVC; 1280x544 (2.35:1); 4092 Kbps; 24 fps; 0,245 bpp
Аудио #1: Russian; AC3; 128 Kbps; CBR; 2 ch [Профессиональный (дубляж)]
Аудио #2: AC3; 640 Kbps; CBR; 6 ch [Оригинальная звуковая дорожка]
MediaInfo
Unique ID : 215091704435410934898911040136085286393 (0xA1D127CAA9C5FF2D93FFDF88C204ADF9)
Complete name : E:\Раздачи-3\Без компромиссов.BDRip 720р.mkv
Format : Matroska
Format version : Version 2
File size : 3.36 GiB
Duration : 1h 37mn
Overall bit rate : 4 959 Kbps
Movie name : Без компромиссов / Blitz (2011) ripped by ed_rez
Encoded date : UTC 2011-07-29 22:39:40
Writing application : mkvmerge v4.8.0 ('I Got The...') сборка от May 24 2011 03:12:58
Writing library : libebml v1.2.0 + libmatroska v1.1.0

Video
ID : 1
Format : AVC
Format/Info : Advanced Video Codec
Format profile : High@L4.1
Format settings, CABAC : Yes
Format settings, ReFrames : 5 frames
Codec ID : V_MPEG4/ISO/AVC
Duration : 1h 37mn
Bit rate : 4 187 Kbps
Width : 1 280 pixels
Height : 544 pixels
Display aspect ratio : 2.35:1
Frame rate : 24.000 fps
Color space : YUV
Chroma subsampling : 4:2:0
Bit depth : 8 bits
Scan type : Progressive
Bits/(Pixel*Frame) : 0.251
Stream size : 2.77 GiB (83%)
Title : Без компромиссов / Blitz (2011)
Writing library : x264 core 116 r2019 9cc407d
Encoding settings : cabac=1 / ref=5 / deblock=1:0:0 / analyse=0x3:0x133 / me=umh / subme=8 / psy=1 / psy_rd=1.00:0.00 / mixed_ref=1 / me_range=16 / chroma_me=1 / trellis=1 / 8x8dct=1 / cqm=0 / deadzone=21,11 / fast_pskip=1 / chroma_qp_offset=-2 / threads=24 / sliced_threads=0 / nr=0 / decimate=1 / interlaced=0 / bluray_compat=0 / constrained_intra=0 / bframes=3 / b_pyramid=2 / b_adapt=1 / b_bias=0 / direct=1 / weightb=1 / open_gop=0 / weightp=2 / keyint=250 / keyint_min=24 / scenecut=40 / intra_refresh=0 / rc=2pass / mbtree=0 / bitrate=4187 / ratetol=1.0 / qcomp=0.60 / qpmin=0 / qpmax=69 / qpstep=4 / cplxblur=20.0 / qblur=0.5 / ip_ratio=1.40 / pb_ratio=1.30 / aq=1:1.00
Language : English

Audio #1
ID : 2
Format : AC-3
Format/Info : Audio Coding 3
Mode extension : CM (complete main)
Codec ID : A_AC3
Duration : 1h 37mn
Bit rate mode : Constant
Bit rate : 128 Kbps
Channel(s) : 2 channels
Channel positions : Front: L R
Sampling rate : 48.0 KHz
Bit depth : 16 bits
Compression mode : Lossy
Stream size : 88.8 MiB (3%)
Title : DUB [TS] AC3, 128 kb/s (2 ch) [Russian]
Language : Russian

Audio #2
ID : 3
Format : AC-3
Format/Info : Audio Coding 3
Mode extension : CM (complete main)
Codec ID : A_AC3
Duration : 1h 37mn
Bit rate mode : Constant
Bit rate : 640 Kbps
Channel(s) : 6 channels
Channel positions : Front: L C R, Side: L R, LFE
Sampling rate : 48.0 KHz
Bit depth : 16 bits
Compression mode : Lossy
Stream size : 444 MiB (13%)
Title : AC3, 640 kb/s (6 ch) [English]
Language : English
Свернуть
Скриншоты
Изображение
Изображение
Изображение
Изображение
Свернуть
Не в сети
Профиль  
 Добавлено: 2011-08-12 12:02 (спустя 13 дней)
Аватара пользователя
Стаж: 8 лет 3 месяца
Возраст: 43
Сообщений: 3290
Спасибок: 21012
Лайков: 3
viewtopic.php?f=1750&t=420568
_________________
Изображение
Не в сети
Профиль  
Начать новую темуОтветить на тему  [ Сообщений: 2 ] 
Вы не можете начинать темы
Вы не можете отвечать на сообщения
Вы не можете редактировать свои сообщения
Вы не можете удалять свои сообщения