Правила форума

Здесь находятся раздачи, на которых не было полного источника (сида) более месяца.
Вы можете вернуть релиз в соответствующий раздел, для этого напишите нам в специальной теме и встаньте на раздачу.
Новые релизы, повторяющие релизы в архиве, повторами не считаются.
Начать новую темуОтветить на тему  [ Сообщений: 4 ] 
Сообщения
 Добавлено: 2011-08-21 11:40
Руководитель релиз-группы
Аватара пользователя
Стаж: 9 лет 1 месяц
Возраст: 28
Сообщений: 4244
Спасибок: 31998
Лайков: 32
Изображение

Бобер
The Beaver


«Нет худа без бобра!»

Год выпуска: 2011
Страна: Изображение Изображение США, ОАЭ
Жанр: драма
Продолжительность: 01:30:59
Перевод: Дубляж + Оригинал + Субтитры (английские)

Режиссер: Джоди Фостер
Сценарий: Кайл Киллен
Продюсер: Стив Голин, Кейт Рэдмон, Энн Рурк
Оператор: Хаген Богданский
Композитор: Марсело Зарвос

В ролях: Мэл Гибсон, Джоди Фостер, Черри Джонс, Антон Ельчин, Райли Стюарт, Захари Бут, Дженнифер Лоуренс, Джефф Корбетт, Бэйлен Томас, Сэм Бреслин Райт

Описание: Уолтер Блэк — успешный бизнесмен, счастливый муж и отец. Одно несчастье — депрессия отравляет все его существование. Полноту и радость жизни Уолтеру возвращает… кукла бобер. Надев ее на руку, Уолтер обретает второе дыхание. Говорящий бобер восстанавливает мир в его отношениях с женой, делает Уолтера кумиром детей и даже берет на себя управление компанией. Родные и близкие в шоке от эксцентричного поведения Уолтера, но он уже и сам не знает, кто главнее — он или бобер.

Релиз: Изображение Раздача: Изображение

kinopoisk.ru: 7.291 (1 421)
imdb.com: 6.90 (4 734)


Доп. информация
Бюджет: $21 000 000
Сборы в мире: $6 370 816
Сборы в США: $970 816
Мировая премьера: 16 марта 2011
Рейтинг PG-13 — Parents strongly cautioned. Дети до 13 лет допускаются на фильм только с родителями
Изображение
Настоятельное предостережение родителям. Некоторый материал может быть неподходящим для детей до 13 лет. Данный рейтинг показывает, что оценённый фильм может быть неподходящим для детей. Родители должны быть особенно осторожны, разрешая своим маленьким детям просмотр. Грубое или продолжительное насилие отсутствует; сексуальная ориентация на наготу отсутствует; некоторые сцены употребления наркотиков могут присутствовать; можно услышать единичные употребления грубой сексуальной лексики.
Свернуть
Свернуть

Качество: BDRip 1080p
Формат: Matroska
Видео: x.264; 1920x800; 11.0 mbps; 23.976 fps; 0.299 bpp
Аудио #1: AC3; 448 kbps; 48 kHz; 6 channels [DUB]
Аудио #2: DTS; 1510 kbps; 48 kHz; 6 channels [ENG]

MediaInfo
Unique ID : 216766531037331377313861691299978415157 (0xA313B71E54E6A77886213C13F7260C35)
Complete name : I:\The.Beaver.2011.BDRip.1080p[R.G.KiNOvNiNO].mkv
Format : Matroska
File size : 8.24 GiB
Duration : 1h 30mn
Overall bit rate : 13.0 Mbps
Movie name : Бобер / The Beaver (2011) от HQ-films
Encoded date : UTC 2011-08-21 02:04:40
Writing application : mkvmerge v4.8.0 ('I Got The...') сборка от May 24 2011 03:12:58
Writing library : libebml v1.2.0 + libmatroska v1.1.0

Video
ID : 1
Format : AVC
Format/Info : Advanced Video Codec
Format profile : High@L4.1
Format settings, CABAC : Yes
Format settings, ReFrames : 4 frames
Codec ID : V_MPEG4/ISO/AVC
Duration : 1h 30mn
Bit rate : 11.0 Mbps
Width : 1 920 pixels
Height : 800 pixels
Display aspect ratio : 2.40:1
Frame rate : 23.976 fps
Color space : YUV
Chroma subsampling : 4:2:0
Bit depth : 8 bits
Scan type : Progressive
Bits/(Pixel*Frame) : 0.299
Stream size : 6.83 GiB (83%)
Title : Бобер / The Beaver (2011) от HQ-films
Writing library : x264 core 116 r2044 392e762
Encoding settings : cabac=1 / ref=4 / deblock=1:-3:-3 / analyse=0x3:0x113 / me=tesa / subme=11 / psy=1 / psy_rd=1.10:0.15 / mixed_ref=1 / me_range=32 / chroma_me=1 / trellis=2 / 8x8dct=1 / cqm=0 / deadzone=21,11 / fast_pskip=0 / chroma_qp_offset=-4 / threads=24 / sliced_threads=0 / nr=0 / decimate=1 / interlaced=0 / bluray_compat=0 / constrained_intra=0 / bframes=6 / b_pyramid=2 / b_adapt=2 / b_bias=0 / direct=3 / weightb=1 / open_gop=0 / weightp=2 / keyint=360 / keyint_min=1 / scenecut=40 / intra_refresh=0 / rc_lookahead=60 / rc=2pass / mbtree=1 / bitrate=11002 / ratetol=1.0 / qcomp=0.60 / qpmin=10 / qpmax=51 / qpstep=4 / cplxblur=20.0 / qblur=0.5 / vbv_maxrate=40000 / vbv_bufsize=30000 / nal_hrd=none / ip_ratio=1.40 / aq=1:0.80
Language : English

Audio #1
ID : 2
Format : AC-3
Format/Info : Audio Coding 3
Mode extension : CM (complete main)
Codec ID : A_AC3
Duration : 1h 30mn
Bit rate mode : Constant
Bit rate : 448 Kbps
Channel(s) : 6 channels
Channel positions : Front: L C R, Side: L R, LFE
Sampling rate : 48.0 KHz
Bit depth : 16 bits
Compression mode : Lossy
Stream size : 292 MiB (3%)
Title : [DUB] AC3, 6 ch, 448 Кбит/с
Language : Russian

Audio #2
ID : 3
Format : DTS
Format/Info : Digital Theater Systems
Codec ID : A_DTS
Duration : 1h 30mn
Bit rate mode : Constant
Bit rate : 1 510 Kbps
Channel(s) : 6 channels
Channel positions : Front: L C R, Side: L R, LFE
Sampling rate : 48.0 KHz
Bit depth : 24 bits
Compression mode : Lossy
Stream size : 983 MiB (12%)
Title : [Original] DTS, 6 ch, 1510 Кбит/с
Language : English

Text
ID : 4
Format : UTF-8
Codec ID : S_TEXT/UTF8
Codec ID/Info : UTF-8 Plain Text
Language : English
Свернуть

Скриншоты

Изображение

Изображение

Изображение

Свернуть
_________________
«you failed because you had the wrong dream...»
Не в сети
Профиль  
 Добавлено: 2011-08-21 11:57 (спустя 17 минут)
Top-releaser
Аватара пользователя
Стаж: 8 лет 7 месяцев
Сообщений: 1286
Спасибок: 3420
Лайков: 7
Блин, пока оформлял, уже выложили. Обидно. :) Помогу раздать :par_don:
Не в сети
Профиль  
 Добавлено: 2011-08-21 23:42 (спустя 11 часов)
Аватара пользователя
Стаж: 8 лет 9 месяцев
Сообщений: 33
Спасибок: 672
Тут аудио дорожка AC3, её читают телевизоры, а там DTS, её телек не видит! Так что качаю тут!
Не в сети
Профиль  
 Добавлено: 2012-12-16 13:58 (спустя 1 год 3 месяца)
Аватара пользователя
Стаж: 5 лет 9 месяцев
Возраст: 44
Сообщений: 13
Спасибок: 48
У Мела Гибсона есть свой почерк. Этот фильм, конечно, не такой топовый, как Apocalypto.
Но, все-равно, интересно посмотреть...
Для любителей психологического кино!
_________________
Мой сертификат на никнейм №842953 от 14.04.2013
Не в сети
Профиль  
Начать новую темуОтветить на тему  [ Сообщений: 4 ] 
Вы не можете начинать темы
Вы не можете отвечать на сообщения
Вы не можете редактировать свои сообщения
Вы не можете удалять свои сообщения