Правила форума

Здесь находятся раздачи, на которых не было полного источника (сида) более месяца.
Вы можете вернуть релиз в соответствующий раздел, для этого напишите нам в специальной теме и встаньте на раздачу.
Новые релизы, повторяющие релизы в архиве, повторами не считаются.
Начать новую темуОтветить на тему  [ Сообщений: 5 ] 
Сообщения
 Добавлено: 2011-04-15 21:49
Модератор
Аватара пользователя
Стаж: 8 лет 1 месяц
Сообщений: 1991
Спасибок: 129863
Лайков: 20
Боец / The Fighter

Изображение
Год выпуска: 2010
Страна: Изображение США
Жанр: драма, биография, спорт
Продолжительность:
01:55:38

Перевод: Профессиональный (полное дублирование) [лицензия]

Режиссер: Дэвид О. Расселл
Сценарий: Скотт Сильвер, Пол Тэймеси, Эрик Джонсон, Кит Доррингтон
Продюсер: Дэвид Хоберман, Райан Кэвэна, Тодд Либерман, Пол Тэймеси, Дороти Офиеро
Оператор: Хойте Ван Хойтема
Композитор: Майкл Брук

В ролях:
Марк Уолберг (Micky Ward), Кристиан Бэйл (Dicky Eklund), Эми Адамс (Charlene Fleming), Мелисса Лео (Alice Ward), Микки О’Киф (играет самого себя), Джек МакГи (George Ward), Мелисса МакМикин, Бьянка Хантер, Эрика МакДермотт, Джилл Квигг (Donna Eklund Jaynes), Дендри Тейлор, О’Брайэн Кейт Би
Дублёры: Василий Дахненко (Micky Ward), Леонид Белозорович (Dicky Eklund), Ирина Савина (Alice Ward), Никита Прозоровский (Микки О’Киф), Борис Быстров (George Ward), Вероника Саркисова (Sherri Ward), Михаил Георгиу (Sal Lanano), Борис Токарев (Lou Gold), Илья Бледный (Jimmy)

Описание: Невероятная, но реальная история пути к званию чемпиона мира боксера Микки Уорда по кличке «Ирландец». Восхождение Уорда было похоже на восхождение легендарного Рокки. Парень из народа, между боями он трудился на дорожных работах.
Пережив череду неудач и поражений, Микки сумел снова вернуться на ринг, когда его тренером стал сводный брат Дикки Эклунд, бывший боксер, карьера которого оборвалась из-за пристрастия к кокаину. Помощь брата, любовь официантки Шарлин, забота матери и несгибаемая воля к победе позволили Уорду взойти на мировой пьедестал...



2 Оскара: Лучшая мужская роль второго плана (Кристиан Бэйл) + Лучшая женская роль второго плана (Мелисса Лео)

Изображение: 7.929 (8 372)
Изображение: 8.00 (47 434)

MPAA: Изображение - Лицам до 17 лет обязательно присутствие взрослого

Доп. Информация

Бюджет: $25 000 000
Сборы в США: $93 617 009
Сборы в России: $910 942
Сборы в мире: $129 190 869
Мировая премьера: 10 декабря 2010
Изображение Релиз на DVD: 21 апреля 2011, «CP-Digital»

Свернуть

Релиз группы: Изображение

Качество: BDRip 1080p [CHD] R5

Формат: MKV
Видео: 13.3 mb/s, 1920x800
Аудио: Russian: AC3, 448 kb/s (6 ch) / English: DTS, 1510 kb/s (6 ch)
Субтитры: Russian, English
Изображение


Знаете ли Вы, что...
  • На роль Микки Уорда первоначально пробовался Майкл Фассбендер.
  • Кристиан Бэйл дабы достичь большей достоверности в изображении кокаиниста Дикки Эклунда сел на жесточайшую диету, питаясь лишь овощами и фруктами, хотя по контракту от него того не требовалось. Он настолько исхудал, что его партнёр Марк Уолберг публично выражал обеспокоенность состоянием его здоровья. Впрочем, Кристиану не в первой: подобной экзекуции он уже подвергал себя при работе над «Машинистом».
Свернуть
BDInfo

Полное имя : The.Fighter.2010.D.BDRip.1080p.[uniongang.tv].mkv
Формат : Matroska
Размер файла : 12,4 Гбайт
Продолжительность : 1 ч. 55 м.
Общий поток : 15,3 Мбит/сек
Название фильма : Боец / The Fighter (2010) .....:::UNIONGANG:::.....
Дата кодирования : UTC 2011-04-15 16:12:27
Программа кодирования : mkvmerge v4.6.0 ('Still Crazy After All These Years') сборка от Mar 10 2011 02:50:32
Библиотека кодирования : libebml v1.2.0 + libmatroska v1.1.0

Видео
Идентификатор : 1
Формат : AVC
Формат/Информация : Advanced Video Codec
Профиль формата : High@L4.1
Параметр CABAC формата : Да
Параметр ReFrames формата : 5 кадры
Идентификатор кодека : V_MPEG4/ISO/AVC
Продолжительность : 1 ч. 55 м.
Битрейт : 13,3 Мбит/сек
Ширина : 1920 пикс.
Высота : 800 пикс.
Соотношение сторон : 2,40:1
Частота кадров : 23,976 кадр/сек
Цветовое пространство : YUV
Подвыборка цветности : 4:2:0
Битовая глубина : 8 бит
Тип развёртки : Прогрессивная
Бит/(Пиксели*Кадры) : 0.362
Размер потока : 10,5 Гбайт (85%)
Заголовок : The.Fighter.2010.BDRip.1080p-CHD
Библиотека кодирования : x264 core 107 r1766 f9f0035
Настройки программы : cabac=1 / ref=5 / deblock=1:-3:-3 / analyse=0x3:0x113 / me=umh / subme=10 / psy=1 / psy_rd=1.05:0.10 / mixed_ref=1 / me_range=32 / chroma_me=1 / trellis=2 / 8x8dct=1 / cqm=2 / deadzone=21,11 / fast_pskip=0 / chroma_qp_offset=-2 / threads=12 / sliced_threads=0 / nr=0 / decimate=1 / interlaced=0 / constrained_intra=0 / bframes=6 / b_pyramid=2 / b_adapt=2 / b_bias=0 / direct=3 / weightb=1 / open_gop=0 / weightp=2 / keyint=250 / keyint_min=23 / scenecut=40 / intra_refresh=0 / rc_lookahead=50 / rc=2pass / mbtree=1 / bitrate=13345 / ratetol=1.0 / qcomp=0.70 / qpmin=10 / qpmax=51 / qpstep=4 / cplxblur=20.0 / qblur=0.5 / vbv_maxrate=40000 / vbv_bufsize=30000 / ip_ratio=1.40 / aq=1:0.80 / nal_hrd=none
Язык : English

Аудио #1
Идентификатор : 2
Формат : AC-3
Формат/Информация : Audio Coding 3
Расширение режима : CM (complete main)
Идентификатор кодека : A_AC3
Продолжительность : 1 ч. 55 м.
Вид битрейта : Постоянный
Битрейт : 448 Кбит/сек
Канал(ы) : 6 канала(ов)
Расположение каналов : Front: L C R, Side: L R, LFE
Частота : 48,0 КГц
Битовая глубина : 16 бит
Метод сжатия : С потерями
Размер потока : 371 Мбайт (3%)
Заголовок : AC3 5.1 @ 448 kb/s [Russian DUB R5]
Язык : Russian

Аудио #2
Идентификатор : 3
Формат : DTS
Формат/Информация : Digital Theater Systems
Идентификатор кодека : A_DTS
Продолжительность : 1 ч. 55 м.
Вид битрейта : Постоянный
Битрейт : 1510 Кбит/сек
Канал(ы) : 6 канала(ов)
Расположение каналов : Front: L C R, Side: L R, LFE
Частота : 48,0 КГц
Битовая глубина : 24 бит
Метод сжатия : С потерями
Задержка видео : 11 мс.
Размер потока : 1,22 Гбайт (10%)
Заголовок : DTS 5.1 @ 1510 kb/s [English]
Язык : English

Текст #1
Идентификатор : 4
Формат : UTF-8
Идентификатор кодека : S_TEXT/UTF8
Идентификатор кодека/Информация : UTF-8 Plain Text
Заголовок : Russian SUB
Язык : Russian

Текст #2
Идентификатор : 5
Формат : UTF-8
Идентификатор кодека : S_TEXT/UTF8
Идентификатор кодека/Информация : UTF-8 Plain Text
Заголовок : English SUB
Язык : English
Свернуть
Скриншоты

Изображение
Изображение
Изображение
Свернуть

_________________
Себе ты можешь не качать, но раздавать другим обязан!
Не в сети
Профиль  
 Добавлено: 2011-04-16 11:32 (спустя 13 часов)
Кинокомментатор
Аватара пользователя
Стаж: 9 лет 1 месяц
Сообщений: 1332
Лайков: 54
без сомнения это надо качать и смотреть;)
Не в сети
Профиль  
 Добавлено: 2011-04-17 13:11 (спустя 1 день 1 час)
Стаж: 7 лет 7 месяцев
Сообщений: 17
ну наконец-то......я дождался
Не в сети
Профиль  
 Добавлено: 2011-04-20 16:43 (спустя 3 дня)
Console V.I.P.
Аватара пользователя
Стаж: 9 лет
Сообщений: 1453
Спасибок: 690
Лайков: 12
отличный, честный фильм
Не в сети
Профиль  
 Добавлено: 2012-02-10 13:15 (спустя 9 месяцев)
Аватара пользователя
Стаж: 8 лет 3 месяца
Сообщений: 188
Спасибок: 717
Ребятки, дайте скорости! :)
Не в сети
Профиль  
Начать новую темуОтветить на тему  [ Сообщений: 5 ] 
Вы не можете начинать темы
Вы не можете отвечать на сообщения
Вы не можете редактировать свои сообщения
Вы не можете удалять свои сообщения