Правила форума

Здесь находятся раздачи, на которых не было полного источника (сида) более месяца.
Вы можете вернуть релиз в соответствующий раздел, для этого напишите нам в специальной теме и встаньте на раздачу.
Новые релизы, повторяющие релизы в архиве, повторами не считаются.
Начать новую темуОтветить на тему  [ 1 сообщение ] 
Сообщения
 Добавлено: 2011-03-19 10:13
Top-releaser
Аватара пользователя
Стаж: 7 лет 3 месяца
Возраст: 25
Сообщений: 1036
Спасибок: 2694
Лайков: 9
Большая маленькая Я / L'âge de raison

Изображение


Год выпуска: 2010
Страна: Франция, Бельгия

Жанр: мелодрама, комедия
Продолжительность: 01:25:59
Перевод: Профессиональный (многоголосый) [лицензия]

Режиссер: Ян Самюэль / Yann Samuell
Сценарий: Ян Самюэль / Yann Samuell
Продюсер: Христоф Россигнон / Christophe Rossignon, Филипп Боэффард / Philippe Boeffard, Ева Мачуэль, Стефан Кьюинет / Stephane Quinet, Арлетт Зильберберг / Arlette Zylberberg
Оператор: Антуан Рош / Antoine Roch
Композитор: Сирилль Офорт / Cyrille Aufort

В ролях: Софи Марсо (Marguerite vel Margaret Flore), Мартон Чокаш (Malcolm), Мишель Дюшоссуа (Maitre Mrignac), Джонатан Цассаи (Philibert Bakary), Эммануэль Грёнвольд (De Lorca), Джульетт Чаппи (Marguerite Flore enfant), Тьерри Ханчиссе (Mathieu), Dborah Marique (La maman de Marguerite), Romo Lebeaut (Philibert Bakary enfant), Jarod Legrand (Mathieu enfant), Alexis Michalik (Lassistant de Margaret), Raphal Devedjian (Simon)
Бюджет: € 8 000 000

Мировая премьера: 4 июля 2010
Релиз на DVD: 17 марта 2011, «Вольга»
Описание: Когда-то успешная бизнес-леди Марго Флор была маленькой девочкой. Кем только ей не хотелось стать в будущем: от исследователя морских глубин до покорителя иных планет. Но судьба распорядилась иначе: теперь Марго заключает сделки на миллионы евро, ее жизнь расписана по минутам на ближайшие полгода и даже со своим любимым, англичанином Малькольмом, она встречается в спокойной обстановке не чаще раза в месяц.
И вот однажды пожилой нотариус Фернан Мериньяк приносит ей письмо, начинающееся словами: «Дорогая Я, мне сейчас семь лет и я пишу это письмо, чтобы ты не забыла обещания, которые дала себе, и помнила, кем хочешь быть...
Рейтинг
kinopoisk.ru: 7.323 (121)
imdb.com: 5.20 (191)
Качество: BDRip 720p R5
Формат: MKV
Видео: MPEG4 Video (H264) 1280x544 23.98fps
Аудио: Russian: АС3, 448 kb/s (6 ch)
Аудио: Francais: DTS, 1510 kb/s (6 ch)
Субтитры: Francais
Изображение
MediaInfo

General
Unique ID : 234055982899147638351907765688963099376 (0xB0158AE8ACE9E9EDAA773236A5CAEAF0)
Complete name : G:\ReLease\Bolshaja.malenkaja.Ja.BDRip.720.mkv
Format : Matroska
File size : 4.65 GiB
Duration : 1h 29mn
Overall bit rate : 7 439 Kbps
Encoded date : UTC 2011-03-17 14:10:14
Writing application : mkvmerge v4.2.0 ('No Talking') сборка от Jul 28 2010 18:38:23
Writing library : libebml v1.0.0 + libmatroska v1.0.0

Video
ID : 1
Format : AVC
Format/Info : Advanced Video Codec
Format profile : High@L4.1
Format settings, CABAC : Yes
Format settings, ReFrames : 5 frames
Format settings, GOP : M=4, N=16
Muxing mode : Header stripping
Codec ID : V_MPEG4/ISO/AVC
Duration : 1h 29mn
Bit rate : 5 485 Kbps
Width : 1 280 pixels
Height : 544 pixels
Display aspect ratio : 2.35:1
Frame rate : 23.976 fps
Color space : YUV
Chroma subsampling : 4:2:0
Bit depth : 8 bits
Scan type : Progressive
Bits/(Pixel*Frame) : 0.329
Stream size : 3.33 GiB (72%)
Writing library : x264 core 110 r1804 e89c4cf
Encoding settings : cabac=1 / ref=5 / deblock=1:0:0 / analyse=0x3:0x113 / me=umh / subme=7 / psy=1 / psy_rd=1.00:0.00 / mixed_ref=1 / me_range=16 / chroma_me=1 / trellis=1 / 8x8dct=1 / cqm=0 / deadzone=21,11 / fast_pskip=0 / chroma_qp_offset=-2 / threads=12 / sliced_threads=0 / nr=0 / decimate=1 / interlaced=0 / constrained_intra=0 / bframes=3 / b_pyramid=2 / b_adapt=1 / b_bias=0 / direct=1 / weightb=1 / open_gop=0 / weightp=2 / keyint=250 / keyint_min=23 / scenecut=40 / intra_refresh=0 / rc_lookahead=40 / rc=2pass / mbtree=1 / bitrate=5485 / ratetol=1.0 / qcomp=0.60 / qpmin=0 / qpmax=51 / qpstep=4 / cplxblur=20.0 / qblur=0.5 / ip_ratio=1.40 / aq=1:1.00
Language : French

Audio #1
ID : 2
Format : AC-3
Format/Info : Audio Coding 3
Mode extension : CM (complete main)
Muxing mode : Header stripping
Codec ID : A_AC3
Duration : 1h 29mn
Bit rate mode : Constant
Bit rate : 448 Kbps
Channel(s) : 6 channels
Channel positions : Front: L C R, Side: L R, LFE
Sampling rate : 48.0 KHz
Bit depth : 16 bits
Compression mode : Lossy
Delay relative to video : 2ms
Stream size : 287 MiB (6%)
Title : R5
Language : Russian

Audio #2
ID : 3
Format : DTS
Format/Info : Digital Theater Systems
Muxing mode : Header stripping
Codec ID : A_DTS
Duration : 1h 29mn
Bit rate mode : Constant
Bit rate : 1 510 Kbps
Channel(s) : 6 channels
Channel positions : Front: L C R, Side: L R, LFE
Sampling rate : 48.0 KHz
Bit depth : 24 bits
Compression mode : Lossy
Stream size : 966 MiB (20%)
Title : DTS 5.1
Language : French

Text
ID : 4
Format : UTF-8
Codec ID : S_TEXT/UTF8
Codec ID/Info : UTF-8 Plain Text
Title : Forced
Language : French


Свернуть
Скриншоты

Изображение
Изображение
Изображение
Изображение
Изображение
Изображение
Свернуть
Не в сети
Профиль  
Начать новую темуОтветить на тему  [ 1 сообщение ] 
Вы не можете начинать темы
Вы не можете отвечать на сообщения
Вы не можете редактировать свои сообщения
Вы не можете удалять свои сообщения