Правила форума

Здесь находятся раздачи, на которых не было полного источника (сида) более месяца.
Вы можете вернуть релиз в соответствующий раздел, для этого напишите нам в специальной теме и встаньте на раздачу.
Новые релизы, повторяющие релизы в архиве, повторами не считаются.
Начать новую темуОтветить на тему  [ 1 сообщение ] 
Сообщения
 Добавлено: 2011-10-23 16:50
Инквизитор
Аватара пользователя
Стаж: 8 лет 9 месяцев
Сообщений: 3753
Спасибок: 28361
Лайков: 9
Изображение

Большие спорщики / The Great Debaters

«When the nation was in need, he inspired them to give us hope.»


Год выпуска: 2007
Страна: США
Жанр: драма, биография
Продолжительность: 02:06:54
Перевод: Одноголосый закадровый, Ю.Немахов
Режиссер: Дензел Вашингтон
Сценарий: Роберт Эйзель, Джеффри Порро
Продюсер: Опра Уинфри, Тодд Блэк, Кейт Форте
Оператор: Филипп Русло
В ролях: Дензел Вашингтон, Нэйт Паркер, Джерни Смоллетт, Дэнзел Уитакер, Жермен Уильямс, Форест Уитакер, Джина Равера, Джон Хёрд, Кимберли Элиз, Девин А. Тайлер
Описание: Драма, основанная на реальных событиях, повествует об упорном учителе, готовящем из небольшой группы учеников маленького техасского колледжа элитную команду для студенческих дебатов. В финале им предстоит сразиться с непобедимыми спорщиками из Гарварда.
Изображение
Сборы в США: $30 227 882
Изображение
Релиз, раздача группы: Изображение, Изображение
Качество: BDRip 720p
Формат: MKV
Видео: 1280x534 at 23.976 fps, x264@L4.1, 2pass, ~6000 kbps avg
Аудио №1: Russian: 48 kHz, DTS, 3/2 (L,C,R,l,r) + LFE ch, ~1536.00 kbps avg |Одноголосый закадровый, Ю.Немахов|
Аудио №2: English: 48 kHz, DTS, 3/2 (L,C,R,l,r) + LFE ch, ~1536.00 kbps avg
Субтитры: English
MInfo
Общее
Уникальный идентификатор         : 195270724368096293870404905905822808815 (0x92E7C60635FB51FF999D86AC36FEBAEF)
Полное имя                       : E:\Фильмы\The.Great.Debaters.2007.720p.BluRay.Rus.Eng.HDCLUB.mkv
Формат                           : Matroska
Версия формата                   : Version 2
Размер файла                     : 7,99 Гбайт
Продолжительность                : 2 ч. 6 м.
Общий поток                      : 9016 Кбит/сек
Название фильма                  : The Great Debaters (2007) - Release for HDCLUB
Дата кодирования                 : UTC 2011-10-04 22:00:15
Программа кодирования            : mkvmerge v3.4.0 ('Rapunzel') built on May 15 2010 09:38:20
Библиотека кодирования           : libebml v0.8.0 + libmatroska v0.9.0

Видео
Идентификатор                    : 1
Формат                           : AVC
Формат/Информация                : Advanced Video Codec
Профиль формата                  : High@L4.1
Параметр CABAC формата           : Да
Параметр ReFrames формата        : 9 кадров
Идентификатор кодека             : V_MPEG4/ISO/AVC
Продолжительность                : 2 ч. 6 м.
Битрейт                          : 6000 Кбит/сек
Ширина                           : 1280 пикс.
Высота                           : 534 пикс.
Соотношение сторон               : 2,40:1
Частота кадров                   : 23,976 кадр/сек
Цветовое пространство            : YUV
Подвыборка цветности             : 4:2:0
Битовая глубина                  : 8 бит
Тип развёртки                    : Прогрессивная
Бит/(Пиксели*Кадры)              : 0.366
Размер потока                    : 5,16 Гбайт (65%)
Заголовок                        : Release for HDCLUB
Библиотека кодирования           : x264 core 116 r2037 f8ebd4a
Настройки программы              : cabac=1 / ref=9 / deblock=1:-3:-3 / analyse=0x3:0x133 / me=umh / subme=10 / psy=1 / psy_rd=1.00:0.00 / mixed_ref=1 / me_range=48 / chroma_me=1 / trellis=2 / 8x8dct=1 / cqm=0 / deadzone=21,11 / fast_pskip=0 / chroma_qp_offset=-2 / threads=12 / sliced_threads=0 / nr=0 / decimate=1 / interlaced=0 / bluray_compat=0 / constrained_intra=0 / bframes=8 / b_pyramid=2 / b_adapt=2 / b_bias=0 / direct=3 / weightb=1 / open_gop=0 / weightp=2 / keyint=250 / keyint_min=23 / scenecut=40 / intra_refresh=0 / rc_lookahead=60 / rc=2pass / mbtree=1 / bitrate=6000 / ratetol=1.0 / qcomp=0.70 / qpmin=0 / qpmax=69 / qpstep=4 / cplxblur=20.0 / qblur=0.5 / vbv_maxrate=40000 / vbv_bufsize=30000 / nal_hrd=none / ip_ratio=1.40 / aq=1:0.80
Язык                             : English

Аудио #1
Идентификатор                    : 2
Формат                           : DTS
Формат/Информация                : Digital Theater Systems
Идентификатор кодека             : A_DTS
Продолжительность                : 2 ч. 6 м.
Вид битрейта                     : Постоянный
Битрейт                          : 1510 Кбит/сек
Каналы                           : 6 каналов
Расположение каналов             : Front: L C R, Side: L R, LFE
Частота                          : 48,0 КГц
Битовая глубина                  : 24 бит
Метод сжатия                     : С потерями
Размер потока                    : 1,34 Гбайт (17%)
Заголовок                        : DTS 5.1 @ 1536 kbps - Одноголосый закадровый, Ю.Немахов
Язык                             : Russian

Аудио #2
Идентификатор                    : 3
Формат                           : DTS
Формат/Информация                : Digital Theater Systems
Идентификатор кодека             : A_DTS
Продолжительность                : 2 ч. 6 м.
Вид битрейта                     : Постоянный
Битрейт                          : 1510 Кбит/сек
Каналы                           : 6 каналов
Расположение каналов             : Front: L C R, Side: L R, LFE
Частота                          : 48,0 КГц
Битовая глубина                  : 24 бит
Метод сжатия                     : С потерями
Размер потока                    : 1,34 Гбайт (17%)
Заголовок                        : DTS 5.1 @ 1536 kbps
Язык                             : English

Текст
Идентификатор                    : 4
Формат                           : UTF-8
Идентификатор кодека             : S_TEXT/UTF8
Идентификатор кодека/Информация  : UTF-8 Plain Text
Язык                             : English

Меню
00:00:00.000                     : en:00:00:00.000
00:05:15.982                     : en:00:05:15.982
00:09:59.098                     : en:00:09:59.098
00:15:32.682                     : en:00:15:32.682
00:20:24.473                     : en:00:20:24.473
00:24:21.669                     : en:00:24:21.669
00:31:38.980                     : en:00:31:38.980
00:37:05.557                     : en:00:37:05.557
00:42:06.023                     : en:00:42:06.023
00:46:36.585                     : en:00:46:36.585
00:49:21.458                     : en:00:49:21.458
00:53:06.642                     : en:00:53:06.642
00:57:44.169                     : en:00:57:44.169
01:01:08.206                     : en:01:01:08.206
01:06:14.554                     : en:01:06:14.554
01:12:14.288                     : en:01:12:14.288
01:14:27.713                     : en:01:14:27.713
01:22:59.266                     : en:01:22:59.266
01:25:16.987                     : en:01:25:16.987
01:29:40.375                     : en:01:29:40.375
01:36:17.105                     : en:01:36:17.105
01:39:14.949                     : en:01:39:14.949
01:43:39.130                     : en:01:43:39.130
01:52:11.391                     : en:01:52:11.391
01:57:49.479                     : en:01:57:49.479
Свернуть
Скриншоты
Изображение
Изображение
Изображение
Изображение
Изображение
Свернуть
Не в сети
Профиль  
Начать новую темуОтветить на тему  [ 1 сообщение ] 
Вы не можете начинать темы
Вы не можете отвечать на сообщения
Вы не можете редактировать свои сообщения
Вы не можете удалять свои сообщения