Правила форума

Здесь находятся раздачи, на которых не было полного источника (сида) более месяца.
Вы можете вернуть релиз в соответствующий раздел, для этого напишите нам в специальной теме и встаньте на раздачу.
Новые релизы, повторяющие релизы в архиве, повторами не считаются.
Начать новую темуОтветить на тему  [ 1 сообщение ] 
Сообщения
 Добавлено: 2013-04-30 16:55
Руководитель релиз-группы
Аватара пользователя
Стаж: 9 лет 1 месяц
Возраст: 28
Сообщений: 4244
Спасибок: 31989
Лайков: 32
Изображение
Большой / Big


«Have you ever had a really big secret?»


Год выпуска | 1988
Страна | США
Жанр | мелодрама ∙ комедия ∙ семейный
Продолжительность | 01:44:10 ∙ 02:10:25
Перевод | Профессиональный (одноголосый, закадровый) (Сербин Ю.) ∙ Профессиональный (многоголосый, закадровый) /20th Century Fox/ ∙ Профессиональный (многоголосый, закадровый) /НТВ/ ∙ Профессиональный (многоголосый, закадровый) /Премьер Видео/ ∙ Профессиональный (полное дублирование) ∙ Профессиональный (одноголосый, закадровый) (Михалев А.) /#1/ ∙ Профессиональный (одноголосый, закадровый) (Михалев А.) /#2/ ∙ Профессиональный (одноголосый, закадровый) (Гаврилов А.) ∙ Профессиональный (многоголосый, закадровый) /ICTV/ ∙ Оригинальный ∙ Субтитры
Режиссер | Пенни Маршалл
Сценарий | Гэри Росс ∙ Энн Спилберг
Продюсер | Джеймс Л. Брукс ∙ Роберт Гринхат ∙ Гэри Росс ∙ Энн Спилберг
Оператор | Барри Зонненфельд
Композитор | Говард Шор ∙ Марвин Хэмлиш ∙ Билли Айдол

В ролях | Том Хэнкс (Josh) ∙ Элизабет Перкинс (Susan) ∙ Роберт Лоджа (MacMillan) ∙ Джон Хёрд (Paul) ∙ Дэвид Москоу (Young Josh) ∙ Джэред Раштон (Billy) ∙ Джон Ловиц (Scotty Brennen) ∙ Мерседес Рул (Mrs. Baskin) ∙ Джош Кларк (Mr. Baskin) ∙ Кимберли М. Дэвис (Cynthia Benson) ∙ Оливер Блок (Freddie Benson) ∙ Эрика Кац (Cynthia's Friend) и др.
Дублёры | Андрей Ташков (Josh) ∙ Мария Володина (Susan) ∙ Валерий Рыжаков ∙ Александр Делибаш (Young Josh) ∙ Владимир Думчев (Billy) ∙ Вадим Захарченко ∙ Наталья Казначеева (Mrs. Baskin) и др.
Описание | 12-летний мальчишка очень хочет стать большим, и вот его желание сбывается. Он как бы вселяется в тело 30-летнего мужчины, каким он будет еще через много лет. Этот взрослый ребенок делает головокружительную карьеру в бизнесе игрушек - в большом игрушечном магазине, любимом детище бизнесмена МакМилана. Однако природа берет свое. Быть большим хорошо, но пропустить детство тоже не хочется.
Релиз | ИзображениеРаздача | Изображение

kinopoisk.ru | 7.993 (24 599)
Бюджет | $18 000 000
Сборы в США | $114 968 774
Сборы в мире | $151 668 774
Мировая премьера | 3 июня 1988
Релиз на DVD | 27 ноября 2008 ∙ «Двадцатый Век Фокс СНГ»
Знаете ли Вы, что...
  • На роль взрослого Джо помимо Тома Хэнкса претендовали Роберт Де Ниро, Робин Уильямс, Харрисон Форд.
  • Роль Джо первоначально была предложена Стиву Гуттенбергу, но актер отклонил предложение.
  • Игравший Джоша Дэвид Москоу одевал для съемок контактные линзы, чтобы цвет его глаз совпадал с цветом глаз Тома Хэнкса.
  • Кроме «Большого» в этот же период вышло еще целых четыре фильма на тематику «обмена/замены тел». Вот их оригинальные названия: 18 Again! (1988), Vice Versa (1988), Like Father Like Son (1987) and Dream a Little Dream (1989)
  • Пенни Маршал стала первой женщиной-режиссером, чей фильм собрал в прокате больше чем 100 миллионов долларов.
  • Фильм занял десятое место в списке десяти самых лучших фэнтезийных фильмов, составленным Американским Институтом Кино в июне 2008 года.
  • Первоначально концовка задумывалась такой: Джош сидит за школьной партой, и в класс заходит девочка-новичок, которая внешне похожа на Элизабет Перкинс, и зрителю становится понятно, что Сьюзан тоже помолодела. Но после тестовых просмотров от нее отказались.
  • Чтобы дать представление Тому Хэнксу о том, как ведёт себя 12-летний ребёнок, режиссёр предпринял следующее: каждая сцена Хэнкса предварительно проигрывалась с Дэвидом Москоу вместо него (Дэвид Москоу играл юного Джошуа).
Свернуть

Качество | Blu-Ray
Контейнер | BDAV
Видео | AVC ∙ 1920x1080 (16:9) ∙ 20489 kbps ∙ 23.976 fps ∙ 0.412 bit/pixel
Аудио #1 | DTS-HD ∙ 4140 kbps ∙ VBR ∙ 6 channels ∙ 24 bit /ENG/
Аудио #2 | AC3 ∙ 224 kbps ∙ CBR ∙ 2 channels ∙ 16 bit /COMM/
Аудио #3 | DTS ∙ 1510 kbps ∙ CBR ∙ 6 channels ∙ 24 bit /AVO/
Аудио #4 | AC3 ∙ 448 kbps ∙ CBR ∙ 6 channels ∙ 16 bit /MVO/
Аудио #5 | AC3 ∙ 384 kbps ∙ CBR ∙ 6 channels ∙ 16 bit /MVO/
Аудио #6 | AC3 ∙ 192 kbps ∙ CBR ∙ 2 channels ∙ 16 bit /MVO/
Аудио #7 | AC3 ∙ 192 kbps ∙ CBR ∙ 2 channels ∙ 16 bit /DUB/
Аудио #8 | DTS ∙ 1510 kbps ∙ CBR ∙ 6 channels ∙ 24 bit /AVO/
Аудио #9 | AC3 ∙ 192 kbps ∙ CBR ∙ 2 channels ∙ 16 bit /AVO/
Аудио #10 | DTS ∙ 1510 kbps ∙ CBR ∙ 6 channels ∙ 24 bit /AVO/
Аудио #11 | AC3 ∙ 192 kbps ∙ CBR ∙ 2 channels ∙ 16 bit /UKR/

MediaInfo
General
ID : 0 (0x0)
Complete name : I:\films\Big.1988.Theatrical.&.Extended.Cut.Blu-Ray\BDMV\STREAM\00084.m2ts
Format : BDAV
Format/Info : Blu-ray Video
File size : 3.00 GiB
Duration : 13mn 17s
Overall bit rate mode : Variable
Overall bit rate : 32.3 Mbps
Maximum Overall bit rate : 48.0 Mbps

Video
ID : 4113 (0x1011)
Menu ID : 1 (0x1)
Format : AVC
Format/Info : Advanced Video Codec
Format profile : High@L4.1
Format settings, CABAC : Yes
Format settings, ReFrames : 4 frames
Codec ID : 27
Duration : 13mn 17s
Bit rate mode : Variable
Bit rate : 20.5 Mbps
Maximum bit rate : 35.0 Mbps
Width : 1 920 pixels
Height : 1 080 pixels
Display aspect ratio : 16:9
Frame rate : 23.976 fps
Color space : YUV
Chroma subsampling : 4:2:0
Bit depth : 8 bits
Scan type : Progressive
Bits/(Pixel*Frame) : 0.412
Stream size : 1.90 GiB (63%)
Color primaries : BT.709-5, BT.1361, IEC 61966-2-4, SMPTE RP177
Transfer characteristics : BT.709-5, BT.1361
Matrix coefficients : BT.709-5, BT.1361, IEC 61966-2-4 709, SMPTE RP177

Audio #1
ID : 4352 (0x1100)
Menu ID : 1 (0x1)
Format : DTS
Format/Info : Digital Theater Systems
Format profile : MA / Core
Muxing mode : Stream extension
Codec ID : 134
Duration : 13mn 17s
Bit rate mode : Variable
Bit rate : 4 141 Kbps / 1 510 Kbps
Channel(s) : 6 channels
Channel positions : Front: L C R, Side: L R, LFE
Sampling rate : 48.0 KHz
Bit depth : 24 bits
Compression mode : Lossless / Lossy

Audio #2
ID : 4353 (0x1101)
Menu ID : 1 (0x1)
Format : AC-3
Format/Info : Audio Coding 3
Mode extension : CM (complete main)
Codec ID : 129
Duration : 13mn 17s
Bit rate mode : Constant
Bit rate : 224 Kbps
Channel(s) : 2 channels
Channel positions : Front: L R
Sampling rate : 48.0 KHz
Bit depth : 16 bits
Compression mode : Lossy
Stream size : 21.3 MiB (1%)

Audio #3
ID : 4354 (0x1102)
Menu ID : 1 (0x1)
Format : DTS
Format/Info : Digital Theater Systems
Codec ID : 130
Duration : 13mn 17s
Bit rate mode : Constant
Bit rate : 1 510 Kbps
Channel(s) : 6 channels
Channel positions : Front: L C R, Side: L R, LFE
Sampling rate : 48.0 KHz
Bit depth : 24 bits
Compression mode : Lossy
Stream size : 144 MiB (5%)

Audio #4
ID : 4355 (0x1103)
Menu ID : 1 (0x1)
Format : AC-3
Format/Info : Audio Coding 3
Mode extension : CM (complete main)
Codec ID : 129
Duration : 13mn 17s
Bit rate mode : Constant
Bit rate : 448 Kbps
Channel(s) : 6 channels
Channel positions : Front: L C R, Side: L R, LFE
Sampling rate : 48.0 KHz
Bit depth : 16 bits
Compression mode : Lossy
Stream size : 42.6 MiB (1%)

Audio #5
ID : 4356 (0x1104)
Menu ID : 1 (0x1)
Format : AC-3
Format/Info : Audio Coding 3
Mode extension : CM (complete main)
Codec ID : 129
Duration : 13mn 17s
Bit rate mode : Constant
Bit rate : 384 Kbps
Channel(s) : 6 channels
Channel positions : Front: L C R, Side: L R, LFE
Sampling rate : 48.0 KHz
Bit depth : 16 bits
Compression mode : Lossy
Stream size : 36.5 MiB (1%)

Audio #6
ID : 4357 (0x1105)
Menu ID : 1 (0x1)
Format : AC-3
Format/Info : Audio Coding 3
Mode extension : CM (complete main)
Codec ID : 129
Duration : 13mn 17s
Bit rate mode : Constant
Bit rate : 192 Kbps
Channel(s) : 2 channels
Channel positions : Front: L R
Sampling rate : 48.0 KHz
Bit depth : 16 bits
Compression mode : Lossy
Stream size : 18.3 MiB (1%)

Audio #7
ID : 4358 (0x1106)
Menu ID : 1 (0x1)
Format : AC-3
Format/Info : Audio Coding 3
Mode extension : CM (complete main)
Codec ID : 129
Duration : 13mn 17s
Bit rate mode : Constant
Bit rate : 192 Kbps
Channel(s) : 2 channels
Channel positions : Front: L R
Sampling rate : 48.0 KHz
Bit depth : 16 bits
Compression mode : Lossy
Stream size : 18.3 MiB (1%)

Audio #8
ID : 4359 (0x1107)
Menu ID : 1 (0x1)
Format : DTS
Format/Info : Digital Theater Systems
Codec ID : 130
Duration : 13mn 17s
Bit rate mode : Constant
Bit rate : 1 510 Kbps
Channel(s) : 6 channels
Channel positions : Front: L C R, Side: L R, LFE
Sampling rate : 48.0 KHz
Bit depth : 24 bits
Compression mode : Lossy
Stream size : 144 MiB (5%)

Audio #9
ID : 4360 (0x1108)
Menu ID : 1 (0x1)
Format : AC-3
Format/Info : Audio Coding 3
Mode extension : CM (complete main)
Codec ID : 129
Duration : 13mn 17s
Bit rate mode : Constant
Bit rate : 192 Kbps
Channel(s) : 2 channels
Channel positions : Front: L R
Sampling rate : 48.0 KHz
Bit depth : 16 bits
Compression mode : Lossy
Stream size : 18.3 MiB (1%)

Audio #10
ID : 4361 (0x1109)
Menu ID : 1 (0x1)
Format : DTS
Format/Info : Digital Theater Systems
Codec ID : 130
Duration : 13mn 17s
Bit rate mode : Constant
Bit rate : 1 510 Kbps
Channel(s) : 6 channels
Channel positions : Front: L C R, Side: L R, LFE
Sampling rate : 48.0 KHz
Bit depth : 24 bits
Compression mode : Lossy
Stream size : 144 MiB (5%)

Audio #11
ID : 4362 (0x110A)
Menu ID : 1 (0x1)
Format : AC-3
Format/Info : Audio Coding 3
Mode extension : CM (complete main)
Codec ID : 129
Duration : 13mn 17s
Bit rate mode : Constant
Bit rate : 192 Kbps
Channel(s) : 2 channels
Channel positions : Front: L R
Sampling rate : 48.0 KHz
Bit depth : 16 bits
Compression mode : Lossy
Stream size : 18.3 MiB (1%)

Text #1
ID : 4608 (0x1200)
Menu ID : 1 (0x1)
Format : PGS
Codec ID : 144

Text #2
ID : 4609 (0x1201)
Menu ID : 1 (0x1)
Format : PGS
Codec ID : 144

Text #3
ID : 4610 (0x1202)
Menu ID : 1 (0x1)
Format : PGS
Codec ID : 144

Text #4
ID : 4611 (0x1203)
Menu ID : 1 (0x1)
Format : PGS
Codec ID : 144
Delay relative to video : 1s 960ms
Свернуть

Также на диске
  • Delete Scenes
  • Trailers
  • TV Spots
  • Big Beginnings
  • Chemistry of a Classic
  • The Work of Play
  • Hollywood Vackstory
  • Carnival Party
Свернуть

Внимание!
На расширенную версию перевод только Юрия Сербина!
Свернуть

Скриншоты

Изображение

Изображение

Изображение
Свернуть
_________________
«you failed because you had the wrong dream...»
Не в сети
Профиль  
Начать новую темуОтветить на тему  [ 1 сообщение ] 
Вы не можете начинать темы
Вы не можете отвечать на сообщения
Вы не можете редактировать свои сообщения
Вы не можете удалять свои сообщения