Правила форума

Здесь находятся раздачи, на которых не было полного источника (сида) более месяца.
Вы можете вернуть релиз в соответствующий раздел, для этого напишите нам в специальной теме и встаньте на раздачу.
Новые релизы, повторяющие релизы в архиве, повторами не считаются.
Начать новую темуОтветить на тему  [ 1 сообщение ] 
Сообщения
 Добавлено: 2011-05-08 22:27
Top-releaser
Аватара пользователя
Стаж: 7 лет 3 месяца
Возраст: 25
Сообщений: 1036
Спасибок: 2694
Лайков: 9
Большой выстрел / The Big Bang

«The search for the ultimate missing person ends... at the beginning of time.»

Изображение



Год выхода: 2010
Страна: США

Жанр: триллер, детектив
Продолжительность: 01:41:16
Перевод: Профессиональный [многоголосый]

Режиссер: Тони Крантц
Сценарий: Эрик Йендерсен
Продюсер: Ричард Рионда Дел Кастро, Эрик Йендерсен, Тони Крантц
Оператор: Шелли Джонсон
Композитор: Джонни Марр

В ролях: Сиенна Гиллори, Отем Ризер, Антонио Бандерас, Сэм Эллиотт, Уильям Фихтнер, Джеймс Ван Дер Бик, Томас Кречманн, Ребекка Мэдер, Джимми Симпсон, Снуп Догг

Описание: Частного детектива нанимают, чтобы найти пропавшую стриптизершу. Простое дело становится запутанным, когда каждый, кому он задавал вопросы, умирает.

Бюджет: $17 000 000

KinoPoisk.ru: 4.036
IMDb.com: 5.5/10

Pаздача группы: Изображение
Качество: BDRip 1080p
Формат: Mkv

Видео: MPEG4 Video (H264) 1920x816 23.98fps
Аудио 1: Russian: AC3, 48.0 KHz, 384 kb/s (6 ch)
Аудио 2: English: AC3, 48.0 KHz, 640 kb/s (6 ch)
Subtitle: Russian, English Utf-8

Изображение

MediaInfo
General
Unique ID : 201147709483868666118117616549243018102 (0x9753A3C2FC38EFFCA4B303E60DAE5B76)
Complete name : H:\ReLease\The.Big.Bang.BDRip.1080p.mkv
Format : Matroska
File size : 8.19 GiB
Duration : 1h 41mn
Overall bit rate : 11.6 Mbps
Movie name : Большой выстрел / The Big Bang (2011) ......:::UNIONGANG:::.....
Encoded date : UTC 2011-05-08 07:40:04
Writing application : mkvmerge v4.7.0 ('Just Like You Imagined') сборка от Apr 21 2011 01:13:14
Writing library : libebml v1.2.0 + libmatroska v1.1.0

Video
ID : 1
Format : AVC
Format/Info : Advanced Video Codec
Format profile : High@L4.1
Format settings, CABAC : Yes
Format settings, ReFrames : 4 frames
Codec ID : V_MPEG4/ISO/AVC
Duration : 1h 41mn
Bit rate : 10.6 Mbps
Width : 1 920 pixels
Height : 816 pixels
Display aspect ratio : 2.35:1
Frame rate : 23.976 fps
Color space : YUV
Chroma subsampling : 4:2:0
Bit depth : 8 bits
Scan type : Progressive
Bits/(Pixel*Frame) : 0.281
Stream size : 7.30 GiB (89%)
Title : The.Big.Bang.2011.P.BDRip.1080p - CHD
Writing library : x264 core 114 r1913 5fd3dce
Encoding settings : cabac=1 / ref=4 / deblock=1:-3:-3 / analyse=0x3:0x113 / me=umh / subme=9 / psy=1 / psy_rd=1.10:0.15 / mixed_ref=1 / me_range=32 / chroma_me=1 / trellis=2 / 8x8dct=1 / cqm=2 / deadzone=21,11 / fast_pskip=0 / chroma_qp_offset=-2 / threads=12 / sliced_threads=0 / nr=0 / decimate=1 / interlaced=0 / constrained_intra=0 / bframes=6 / b_pyramid=2 / b_adapt=2 / b_bias=0 / direct=3 / weightb=1 / open_gop=0 / weightp=2 / keyint=250 / keyint_min=23 / scenecut=40 / intra_refresh=0 / rc_lookahead=60 / rc=2pass / mbtree=1 / bitrate=10557 / ratetol=2.0 / qcomp=0.70 / qpmin=1 / qpmax=63 / qpstep=4 / cplxblur=20.0 / qblur=0.5 / vbv_maxrate=40000 / vbv_bufsize=30000 / nal_hrd=none / ip_ratio=1.40 / aq=1:0.90
Language : English

Audio #1
ID : 2
Format : AC-3
Format/Info : Audio Coding 3
Mode extension : CM (complete main)
Codec ID : A_AC3
Duration : 1h 41mn
Bit rate mode : Constant
Bit rate : 384 Kbps
Channel(s) : 6 channels
Channel positions : Front: L C R, Side: L R, LFE
Sampling rate : 48.0 KHz
Bit depth : 16 bits
Compression mode : Lossy
Stream size : 278 MiB (3%)
Title : AC3 5.1 @ 384 [Russian MVO]
Language : Russian

Audio #2
ID : 3
Format : AC-3
Format/Info : Audio Coding 3
Mode extension : CM (complete main)
Codec ID : A_AC3
Duration : 1h 41mn
Bit rate mode : Constant
Bit rate : 640 Kbps
Channel(s) : 6 channels
Channel positions : Front: L C R, Side: L R, LFE
Sampling rate : 48.0 KHz
Bit depth : 16 bits
Compression mode : Lossy
Stream size : 464 MiB (6%)
Title : AC3 5.1 @ 640 kb/s [English]
Language : English

Text #1
ID : 4
Format : UTF-8
Codec ID : S_TEXT/UTF8
Codec ID/Info : UTF-8 Plain Text
Title : Russian
Language : Russian

Text #2
ID : 5
Format : UTF-8
Codec ID : S_TEXT/UTF8
Codec ID/Info : UTF-8 Plain Text
Title : English
Language : English

Свернуть
Скриншоты
Изображение
Изображение
Изображение
Изображение
Изображение
Изображение
Свернуть
Не в сети
Профиль  
Начать новую темуОтветить на тему  [ 1 сообщение ] 
Вы не можете начинать темы
Вы не можете отвечать на сообщения
Вы не можете редактировать свои сообщения
Вы не можете удалять свои сообщения