Правила форума

Здесь находятся раздачи, на которых не было полного источника (сида) более месяца.
Вы можете вернуть релиз в соответствующий раздел, для этого напишите нам в специальной теме и встаньте на раздачу.
Новые релизы, повторяющие релизы в архиве, повторами не считаются.
Начать новую темуОтветить на тему  [ Сообщений: 9 ] 
Сообщения
 Добавлено: 2011-08-19 23:28
Книголюб
Аватара пользователя
Стаж: 7 лет 2 месяца
Сообщений: 2823
Спасибок: 48826
Лайков: 73
Бомж с дробовиком
Hobo with a Shotgun
Изображение


Год выпуска: 2011
Страна: Канада
Слоган: Канада
Жанр: Боевик, Криминал, Приключения, Триллер
Продолжительность: 01:26:05
Перевод: Любительский (двухголосый)

Режиссёр: Джейсон Айзенер
В ролях: Брайан Дауни, Майкл Фокс, Робб Уэллс, Молли Дансуорт, Ник Бейтман, Дэвид Брант, Паша Эбрахими, Джереми Акерман, Грегори Смит, Рутгер Хауэр
Описание: В центре событий бомж, которому надоело наблюдать беспредел творящийся на улицах. В один прекрасный момент чаша его терпения переполняется, он хватает с витрины магазина дробовик и идет наводить справедливость, отстреливая бандитов, коррумпированных копов, педофилов и прочих уродов.
Мировая премьера: 21 января 2011,
Бюджет: $3 000 000
Изображение 5.865 3 756

Качество: BDRip 1080p
Формат: MKV
Видео кодек: AVC
Аудио кодек: DTS
Видео: 8330 kb/s, 1920x800, 23.98fps, 0.226 Bits/Pixel
Аudio#1: Russian: 384 kb/s (6 ch)
Audio#2: English: DTS, 755 kb/s (6 ch)


MediaInfo
General
Unique ID : 194161446063461845854210433501834119938 (0x921222619C3C037891958E0570620B02)
Complete name : I:\Hobo.with.a.Shotgun.2011. BDRip.1080p.mkv
Format : Matroska
File size : 5.70 GiB
Duration : 1h 26mn
Overall bit rate : 9 480 Kbps
Movie name : Hobo.with.a.Shotgun.2011.LIMITED.L2.BDRip.1080p -TVB- UNIONGANG
Encoded date : UTC 2011-06-25 23:25:45
Writing application : mkvmerge v4.8.0 ('I Got The...') сборка от May 24 2011 03:12:58
Writing library : libebml v1.2.0 + libmatroska v1.1.0

Video
ID : 1
Format : AVC
Format/Info : Advanced Video Codec
Format profile : High@L4.1
Format settings, CABAC : Yes
Format settings, ReFrames : 5 frames
Format settings, GOP : M=1, N=24
Codec ID : V_MPEG4/ISO/AVC
Duration : 1h 26mn
Bit rate : 8 330 Kbps
Width : 1 920 pixels
Height : 800 pixels
Display aspect ratio : 2.40:1
Frame rate : 23.976 fps
Color space : YUV
Chroma subsampling : 4:2:0
Bit depth : 8 bits
Scan type : Progressive
Bits/(Pixel*Frame) : 0.226
Stream size : 4.90 GiB (86%)
Writing library : x264 core 115 r2008 4c552d8
Encoding settings : cabac=1 / ref=5 / deblock=1:0:0 / analyse=0x3:0x113 / me=umh / subme=8 / psy=1 / psy_rd=1.00:0.00 / mixed_ref=1 / me_range=16 / chroma_me=1 / trellis=1 / 8x8dct=1 / cqm=0 / deadzone=21,11 / fast_pskip=1 / chroma_qp_offset=-2 / threads=12 / sliced_threads=0 / nr=0 / decimate=1 / interlaced=0 / bluray_compat=0 / constrained_intra=0 / bframes=3 / b_pyramid=2 / b_adapt=2 / b_bias=0 / direct=3 / weightb=1 / open_gop=0 / weightp=2 / keyint=240 / keyint_min=24 / scenecut=40 / intra_refresh=0 / rc_lookahead=50 / rc=2pass / mbtree=1 / bitrate=8330 / ratetol=1.0 / qcomp=0.60 / qpmin=0 / qpmax=69 / qpstep=4 / cplxblur=20.0 / qblur=0.5 / ip_ratio=1.40 / aq=1:1.00
Language : English

Audio #1
ID : 2
Format : AC-3
Format/Info : Audio Coding 3
Mode extension : CM (complete main)
Codec ID : A_AC3
Duration : 1h 26mn
Bit rate mode : Constant
Bit rate : 384 Kbps
Channel(s) : 6 channels
Channel positions : Front: L C R, Side: L R, LFE
Sampling rate : 48.0 KHz
Bit depth : 16 bits
Compression mode : Lossy
Stream size : 236 MiB (4%)
Language : Russian

Audio #2
ID : 3
Format : DTS
Format/Info : Digital Theater Systems
Codec ID : A_DTS
Duration : 1h 26mn
Bit rate mode : Constant
Bit rate : 755 Kbps
Channel(s) : 6 channels
Channel positions : Front: L C R, Side: L R, LFE
Sampling rate : 48.0 KHz
Bit depth : 24 bits
Compression mode : Lossy
Delay relative to video : 11ms
Stream size : 464 MiB (8%)
Language : English

Text
ID : 4
Format : UTF-8
Codec ID : S_TEXT/UTF8
Codec ID/Info : UTF-8 Plain Text
Title : Hobo with a. hotgun (2011) LIMITED
Language : English


Свернуть




Скриншоты
Изображение
Изображение
Свернуть
Не в сети
Профиль  
 Добавлено: 2011-08-20 00:04 (спустя 35 минут)
Аватара пользователя
Стаж: 8 лет 1 месяц
Возраст: 35
Сообщений: 156
Спасибок: 15
Лайков: 18
описание зачОтное ;;-))) смысл фильма ясен ) спасибо ))
Не в сети
Профиль  
 Добавлено: 2011-08-20 00:25 (спустя 21 минута)
Аватара пользователя
Стаж: 8 лет 3 месяца
Возраст: 43
Сообщений: 3290
Спасибок: 21012
Лайков: 3
coldun
добавьте еще пару скринов пожалуйста

Добавлено спустя 34 минуты:
Зарегистрирован: 1 час 19 минут •
Полного источника не было никогда
_________________
Изображение
Не в сети
Профиль  
 Добавлено: 2011-12-19 15:34 (спустя 3 месяца 30 дней)
Аватара пользователя
Стаж: 7 лет 5 месяцев
Сообщений: 146
Спасибок: 101
поддайте газку
Не в сети
Профиль  
 Добавлено: 2012-03-22 16:58 (спустя 3 месяца 3 дня)
Аватара пользователя
Стаж: 9 лет
Сообщений: 207
:ps_ih: трэшовый фильмак ! а в кино одни супер менши))
Не в сети
Профиль  
 Добавлено: 2012-03-22 19:25 (спустя 2 часа 27 минут)
Стаж: 8 лет 7 месяцев
Сообщений: 16
гениальный сценарий.... надо обязательно всё бросить и посмотреть
Не в сети
Профиль  
 Добавлено: 2012-04-01 12:29 (спустя 9 дней)
Аватара пользователя
Стаж: 7 лет
Сообщений: 28
Ну и гавно. Снятый материал просто бред.
Не в сети
Профиль  
 Добавлено: 2012-04-01 13:01 (спустя 32 минуты)
Аватара пользователя
Стаж: 6 лет 3 месяца
Сообщений: 26
чушь...
Не в сети
Профиль  
 Добавлено: 2012-04-01 15:21 (спустя 2 часа 20 минут)
Стаж: 5 лет 10 месяцев
Сообщений: 280
Лайков: 8
дааааааааа.....Рудгер Хауер.......и это после Слепой Ярости......опуститься так.
Не в сети
Профиль  
Начать новую темуОтветить на тему  [ Сообщений: 9 ] 
Вы не можете начинать темы
Вы не можете отвечать на сообщения
Вы не можете редактировать свои сообщения
Вы не можете удалять свои сообщения