Правила форума

Здесь находятся раздачи, на которых не было полного источника (сида) более месяца.
Вы можете вернуть релиз в соответствующий раздел, для этого напишите нам в специальной теме и встаньте на раздачу.
Новые релизы, повторяющие релизы в архиве, повторами не считаются.
Начать новую темуОтветить на тему  [ 1 сообщение ] 
Сообщения
 Добавлено: 2012-06-02 10:30
Top-seeder
Аватара пользователя
Стаж: 9 лет
Сообщений: 1399
Спасибок: 28654
Лайков: 8
Бриллиантовый полицейский / Blue Streak

«He's a cop that's not.»

Изображение


Год выпуска : 1999
Страна : Изображение Изображение
Жанр : боевик, триллер, комедия, криминал
Продолжительность : 01:34:06
Перевод : Профессиональный (полное дублирование) [Лицензия]
Субтитры : Russian, English

Режиссер : Лес Мэйфилд / Les Mayfield
В ролях : Мартин Лоуренс /Martin Lawrence/, Люк Уилсон /Luke Wilson/, Питер Грин /Peter Greene/, Дэйв Шапелл /Dave Chappelle/, Николь Ари Паркер /Nicole Ari Parker/, Грэм Беккел /Graham Beckel/, Роберт Миранда /Robert Miranda/, Олек Крупа /Olek Krupa/, Саверио Гуерра /Saverio Guerra/, Ричард С. Сарафьян /Richard C. Sarafian

Описание : Вор должен сидеть в тюрьме, а не работать в полиции. Создатели этого комедийного боевика с этим не согласны. Непревзойденный эксперт по сейфам и хранящимся в них драгоценностям Майлс Логан выходит из тюрьмы и сразу направляется … в полицию. Незадолго перед арестом он спрятал бесценный бриллиант в строящемся здании, которое вскоре превратилось в полицейский участок.
Чтобы проникнуть на вражескую территорию и вернуть украденное, Майлс становится служителем закона и, как на зло, ему приходится участвовать в настоящих расследованиях. За считанные дни неисправимый рецидивист становится руководителем целого подразделения! Ведь никто лучше вора не знает всех тонкостей криминального мира. Однако все это время преступное сообщество внимательно следило за карьерой бриллиантового полицейского. И приняло меры.


Качество : BDRip
Формат : MKV
Аудио кодек : AC3, DTS
Видео кодек : H.264
Видео : 1280x692 (1.85:1) at 23.976 fps, x264, 2pass - L4.1, ~5141 Kbps avg
Аудио: Russian: 48 kHz, AC3, 3/2 (L,C,R,l,r) + LFE ch, ~640.00 kbps avg |Дубляж|
Аудио2: Russian: 48 kHz, AC3, 3/2 (L,C,R,l,r) + LFE ch, ~448.00 kbps avg |Многоголосый закадровый|
Аудио3: Russian: 48 kHz, AC3, 3/2 (L,C,R,l,r) + LFE ch, ~448.00 kbps avg |Одноголосый закадровый, П. Санаев|
Аудио4: English: 48 kHz, DTS, 3/2 (L,C,R,l,r) + LFE ch, ~1536.00 kbps avg |Оригинальный|

MI
Общее
Уникальный идентификатор : 219680844911151802599520371550172134230 (0xA544FDE2D23D38778C951DDDA276BB56)
Полное имя : D:\Закачки\Бриллиантовый полицейский.mkv
Формат : Matroska
Размер файла : 5,38 Гбайт
Продолжительность : 1 ч. 34 м.
Общий поток : 8189 Кбит/сек
Название фильма : Blue Streak (1999) - Release for HDClub
Дата кодирования : UTC 2009-02-12 15:11:46
Программа кодирования : mkvmerge v2.0.2 ('You're My Flame') built on Feb 21 2007 23:40:55
Библиотека кодирования : libebml v0.7.7 + libmatroska v0.8.1

Видео
Идентификатор : 1
Формат : AVC
Формат/Информация : Advanced Video Codec
Профиль формата : High@L4.1
Параметр CABAC формата : Да
Параметр ReFrames формата : 6 кадров
Идентификатор кодека : V_MPEG4/ISO/AVC
Продолжительность : 1 ч. 34 м.
Битрейт : 5140 Кбит/сек
Ширина : 1280 пикс.
Высота : 692 пикс.
Соотношение сторон : 1,850
Частота кадров : 23,976 кадр/сек
Цветовое пространство : YUV
Подвыборка цветности : 4:2:0
Битовая глубина : 8 бит
Тип развёртки : Прогрессивная
Бит/(Пиксели*Кадры) : 0.242
Размер потока : 3,27 Гбайт (61%)
Заголовок : Release for HDClub
Библиотека кодирования : x264 core 65 r1026M 745a48b
Настройки программы : cabac=1 / ref=6 / deblock=1:-3:-3 / analyse=0x3:0x113 / me=umh / subme=9 / psy_rd=1.0:0.6 / mixed_ref=1 / me_range=24 / chroma_me=1 / trellis=2 / 8x8dct=1 / cqm=0 / deadzone=21,11 / chroma_qp_offset=-4 / threads=3 / nr=0 / decimate=1 / mbaff=0 / bframes=3 / b_pyramid=0 / b_adapt=2 / b_bias=0 / direct=3 / wpredb=1 / keyint=250 / keyint_min=25 / scenecut=40(pre) / rc=2pass / bitrate=5140 / ratetol=1.0 / qcomp=0.60 / qpmin=10 / qpmax=51 / qpstep=4 / cplxblur=20.0 / qblur=0.5 / ip_ratio=1.40 / pb_ratio=1.30 / aq=1:0.80
Язык : English

Аудио #1
Идентификатор : 2
Формат : AC-3
Формат/Информация : Audio Coding 3
Расширение режима : CM (complete main)
Идентификатор кодека : A_AC3
Продолжительность : 1 ч. 34 м.
Вид битрейта : Постоянный
Битрейт : 640 Кбит/сек
Каналы : 6 каналов
Расположение каналов : Front: L C R, Side: L R, LFE
Частота : 48,0 КГц
Битовая глубина : 16 бит
Метод сжатия : С потерями
Размер потока : 431 Мбайт (8%)
Заголовок : AC3 5.1 640 Kbps Дубляж
Язык : Russian

Аудио #2
Идентификатор : 3
Формат : AC-3
Формат/Информация : Audio Coding 3
Расширение режима : CM (complete main)
Идентификатор кодека : A_AC3
Продолжительность : 1 ч. 34 м.
Вид битрейта : Постоянный
Битрейт : 448 Кбит/сек
Каналы : 6 каналов
Расположение каналов : Front: L C R, Side: L R, LFE
Частота : 48,0 КГц
Битовая глубина : 16 бит
Метод сжатия : С потерями
Размер потока : 302 Мбайт (5%)
Заголовок : AC3 5.1 448 Kbps Многоголосый закадровый
Язык : Russian

Аудио #3
Идентификатор : 4
Формат : AC-3
Формат/Информация : Audio Coding 3
Расширение режима : CM (complete main)
Идентификатор кодека : A_AC3
Продолжительность : 1 ч. 34 м.
Вид битрейта : Постоянный
Битрейт : 448 Кбит/сек
Каналы : 6 каналов
Расположение каналов : Front: L C R, Side: L R, LFE
Частота : 48,0 КГц
Битовая глубина : 16 бит
Метод сжатия : С потерями
Размер потока : 302 Мбайт (5%)
Заголовок : AC3 5.1 448 Kbps Одноголосый закадровый - П. Санаев
Язык : Russian

Аудио #4
Идентификатор : 5
Формат : DTS
Формат/Информация : Digital Theater Systems
Идентификатор кодека : A_DTS
Продолжительность : 1 ч. 34 м.
Вид битрейта : Постоянный
Битрейт : 1510 Кбит/сек
Каналы : 6 каналов
Расположение каналов : Front: L C R, Side: L R, LFE
Частота : 48,0 КГц
Битовая глубина : 24 бит
Метод сжатия : С потерями
Размер потока : 1016 Мбайт (18%)
Заголовок : DTS 5.1 1536 Kbps
Язык : English

Текст #1
Идентификатор : 6
Формат : UTF-8
Идентификатор кодека : S_TEXT/UTF8
Идентификатор кодека/Информация : UTF-8 Plain Text
Язык : Russian

Текст #2
Идентификатор : 7
Формат : UTF-8
Идентификатор кодека : S_TEXT/UTF8
Идентификатор кодека/Информация : UTF-8 Plain Text
Язык : English

Свернуть

Скриншоты
ИзображениеИзображениеИзображениеИзображениеИзображение
Свернуть
Не в сети
Профиль  
Начать новую темуОтветить на тему  [ 1 сообщение ] 
Вы не можете начинать темы
Вы не можете отвечать на сообщения
Вы не можете редактировать свои сообщения
Вы не можете удалять свои сообщения