Правила форума

Здесь находятся раздачи, на которых не было полного источника (сида) более месяца.
Вы можете вернуть релиз в соответствующий раздел, для этого напишите нам в специальной теме и встаньте на раздачу.
Новые релизы, повторяющие релизы в архиве, повторами не считаются.
Начать новую темуОтветить на тему  [ Сообщений: 2 ] 
Сообщения
 Добавлено: 2011-12-26 19:47
Аватара пользователя
Стаж: 8 лет 3 месяца
Возраст: 25
Сообщений: 167
Спасибок: 647

Царь скорпионов / The Scorpion King

Изображение


Год выпуска: 2002
Страна: США, Германия, Бельгия
Слоган: «Воин. Легенда. Король»
Жанр: фэнтези, боевик, триллер, мелодрама, приключения
Продолжительность: 01:31:29
Перевод: Оригинальный, Профессиональный (двухголосый), Профессиональный (многоголосый, закадровый), Профессиональный (полное дублирование), Авторский (Живов Юрий)
Режиссер: Чак Рассел
Сценарий: Стивен Соммерс, Уильям Осборн, Дэвид Хэйтер
Продюсер: Шон Дэниэл, Джеймс Джекс, Кевин Мишер
Оператор: Джон Р. Леонетти
Композитор: Джон Дебни
В ролях: Дуэйн Джонсон, Стивен Брэнд, Майкл Кларк Дункан, Келли Ху, Бернард Хилл
Бюджет: $60 000 000
Сборы в США: $91 047 077
Сборы в России: $2 064 837
Сборы в мире: $164 996 077
Описание: Эта история произошла 5 тыс. лет назад в Египте, еще задолго до постройки первых пирамид. Злой правитель и могущественный воин Мемнон решил поработить все народы, живущие в пустыне. Со своей многочисленной армией Мемнон выигрывает одно сражение за другим. Удача сопутствует жестокому злодею, потому что все злодеяния Мемнон совершает, опираясь на предсказания своего провидца. Осталась только горстка непокорных народов в пустыне, которые еще противостоят власти Мемнона.
Немногие оставшиеся племена нанимают воина акадца Метаеса - человека убивающего за деньги - чтобы тот убил провидца Мемнона. Оказавшись во вражеском лагере, Метаес к своему удивлению обнаруживает, что ясновидец - это красивая молодая женщина Кассандра. Он оставляет ее в живых и берет с собой в пустыню, чтобы выманить Мемнона из его города-крепости Гоморры. Единственное, что может успокоить теперь Метаеса - это смерть Мемнона

Изображение
MPAA: Изображение
Мировая премьера: 15 апреля 2002
Релиз на DVD: 16 декабря 2008, «Юниверсал Пикчерс Рус»
Раздача группы: Изображение
Качество: BDRip, 1080p
Формат: Matroska
Видео: AVC; 1920x816 (2.35:1); 11613 Kbps; 23,976 fps; 0,309 bit/pixel
Аудио №1: Russian; DTS; 754 Kbps; CBR; 6 ch; 24 bit [дубляж]
Аудио №2: Russian; AC3; 384 Kbps; CBR; 6 ch [двухголосый]
Аудио №3: Russian; AC3; 192 Kbps; CBR; 2 ch [студия "премьер" (с VHS)]
Аудио №4: Russian; AC3; 384 Kbps; CBR; 6 ch [многоголосый]
Аудио №5: Russian; DTS; 754 Kbps; CBR; 6 ch; 24 bit [Живов]
Аудио №6: English; DTS; 1509 Kbps; CBR; 6 ch; 24 bit [оригинал]
Аудио №7: English; AC3; 192 Kbps; CBR; 2 ch [комментарии Чака Рассела]
Аудио №8: English; AC3; 192 Kbps; CBR; 2 ch [комментарии Дуэйна Джонсона]
Субтитры №1: Russian
Субтитры №2: Russian
Субтитры №3: Russian [комментарии Чака Рассела]
Субтитры №4: Russian [комментарии Дуэйна Джонсона]
Субтитры №5: English
"Знаете ли Вы, что..."
  • Эта картина представляет собой приквел ленты «Мумия Возвращается», которая, в свою очередь, стала сиквелом ремейка фильма, снятого 70 лет назад («Мумия»).
  • 29-летний чемпион по рестлингу Дуэйн «Скала» Джонсон заработал за роль Матэюса - $5.5 млн и вошел в Книгу рекордов Гиннесса как актер, получивший самый большой гонорар за свою первую главную роль в кино.
  • Роль главного злодея создавалась с прицелом на Чоу Юнь-фата, однако его менеджер Теренс Чанг отклонил это предложение, заявив, что его клиент никогда не играет отрицательных персонажей, чтобы не разочаровывать своих поклонников.
  • В сцене схватки Матэюса с Бальтазаром Майкл Кларк Дункан чересчур сильно наклонился вперед, из-за чего Джонсон попал локтем ему в челюсть. От сильнейшего удара огромный Дункан навзничь упал на землю.
  • Винс МакМахон стал исполнительным продюсером фильма только потому, что ему принадлежат права на коммерческое использование прозвища Джонсона «Скала».
  • В картине звучит фрагмент мелодии, под которую Джонсон обычно выходил на ринг во время соревнований по рестлингу.
  • Когда фильм был уже смонтирован, оказалось, что его продолжительность всего 70 минут. Для того чтобы увеличить хронометраж, пришлось снять несколько дополнительных сцен.
Свернуть
Скриншоты

Изображение
Изображение
Изображение
Изображение
Свернуть

"MediaInfo"

Общее
Уникальный идентификатор : 246662553298818356568288125552633200148 (0xB9917AD1455A67C7BFCCF0E19DCA3E14)
Полное имя : C:\Users\SiAlA\Downloads\Релизы\Carj.skorpionov[R.G.Daredevil].mkv
Формат : Matroska
Версия формата : Version 1
Размер файла : 10,4 Гбайт
Продолжительность : 1 ч. 31 м.
Общий поток : 16,3 Мбит/сек
Название фильма : The Scorpion King. 2002. BDRip (1080p) - Kinozal.TV-HD (YlNiAn)
Дата кодирования : UTC 2010-07-24 09:02:19
Программа кодирования : mkvmerge v2.4.0 ('Fumbling Towards Ecstasy') built on Oct 11 2008 20:13:15
Библиотека кодирования : libebml v0.7.7 + libmatroska v0.8.1

Видео
Идентификатор : 1
Формат : AVC
Формат/Информация : Advanced Video Codec
Профиль формата : High@L4.1
Параметр CABAC формата : Да
Параметр ReFrames формата : 5 кадров
Идентификатор кодека : V_MPEG4/ISO/AVC
Продолжительность : 1 ч. 31 м.
Битрейт : 11,9 Мбит/сек
Ширина : 1920 пикселей
Высота : 816 пикселей
Соотношение сторон : 2,35:1
Частота кадров : 23,976 кадра/сек
Цветовое пространство : YUV
Субдискретизация насыщенности : 4:2:0
Битовая глубина : 8 бит
Тип развёртки : Прогрессивная
Бит/(Пиксели*Кадры) : 0.318
Размер потока : 7,42 Гбайт (71%)
Заголовок : The Scorpion King. 2002. BDRip (1080p)
Библиотека кодирования : x264 core 60 r901M 58d7d06
Настройки программы : cabac=1 / ref=5 / deblock=1:-3:-3 / analyse=0x3:0x133 / me=umh / subme=7 / rdcmp=psy / brdo=1 / mixed_ref=1 / me_range=24 / chroma_me=1 / trellis=0 / 8x8dct=1 / cqm=2 / deadzone=21,11 / chroma_qp_offset=0 / threads=6 / nr=0 / decimate=0 / mbaff=0 / bframes=3 / b_pyramid=1 / b_adapt=1 / b_bias=0 / direct=3 / wpredb=1 / bime=1 / keyint=250 / keyint_min=25 / scenecut=40(pre) / rc=2pass / bitrate=11935 / ratetol=1.0 / rceq='blurCplx^(1-qComp)' / qcomp=1.00 / qpmin=10 / qpmax=51 / qpstep=4 / cplxblur=20.0 / qblur=0.5 / ip_ratio=1.40 / pb_ratio=1.19 / aq=2:1.00
Язык : English
Default : Да
Forced : Нет

Аудио #1
Идентификатор : 2
Формат : DTS
Формат/Информация : Digital Theater Systems
Идентификатор кодека : A_DTS
Продолжительность : 1 ч. 31 м.
Вид битрейта : Постоянный
Битрейт : 755 Кбит/сек
Каналы : 6 каналов
Расположение каналов : Front: L C R, Side: L R, LFE
Частота : 48,0 КГц
Битовая глубина : 24 бит
Метод сжатия : С потерями
Размер потока : 494 Мбайт (5%)
Заголовок : Дубляж (DTS 5.1 768)
Язык : Russian
Default : Да
Forced : Нет

Аудио #2
Идентификатор : 3
Формат : AC-3
Формат/Информация : Audio Coding 3
Расширение режима : CM (complete main)
Идентификатор кодека : A_AC3
Продолжительность : 1 ч. 31 м.
Вид битрейта : Постоянный
Битрейт : 384 Кбит/сек
Каналы : 6 каналов
Расположение каналов : Front: L C R, Side: L R, LFE
Частота : 48,0 КГц
Битовая глубина : 16 бит
Метод сжатия : С потерями
Задержка видео : 24 мс.
Размер потока : 251 Мбайт (2%)
Заголовок : Многоголосый (DD 5.1 384)
Язык : Russian
Default : Нет
Forced : Нет

Аудио #3
Идентификатор : 4
Формат : AC-3
Формат/Информация : Audio Coding 3
Расширение режима : CM (complete main)
Идентификатор кодека : A_AC3
Продолжительность : 1 ч. 31 м.
Вид битрейта : Постоянный
Битрейт : 192 Кбит/сек
Каналы : 2 канала
Расположение каналов : Front: L R
Частота : 48,0 КГц
Битовая глубина : 16 бит
Метод сжатия : С потерями
Размер потока : 126 Мбайт (1%)
Заголовок : Многоголосый (Премьер) (DD 2.0 192)
Язык : Russian
Default : Нет
Forced : Нет

Аудио #4
Идентификатор : 5
Формат : AC-3
Формат/Информация : Audio Coding 3
Расширение режима : CM (complete main)
Идентификатор кодека : A_AC3
Продолжительность : 1 ч. 31 м.
Вид битрейта : Постоянный
Битрейт : 384 Кбит/сек
Каналы : 6 каналов
Расположение каналов : Front: L C R, Side: L R, LFE
Частота : 48,0 КГц
Битовая глубина : 16 бит
Метод сжатия : С потерями
Размер потока : 251 Мбайт (2%)
Заголовок : Двухголосый (DD 5.1 384)
Язык : Russian
Default : Нет
Forced : Нет

Аудио #5
Идентификатор : 6
Формат : DTS
Формат/Информация : Digital Theater Systems
Профиль формата : ES
Идентификатор кодека : A_DTS
Продолжительность : 1 ч. 31 м.
Вид битрейта : Постоянный
Битрейт : 755 Кбит/сек
Каналы : 6 каналов
Расположение каналов : Front: L C R, Side: L R, LFE
Частота : 48,0 КГц
Битовая глубина : 24 бит
Метод сжатия : С потерями
Размер потока : 494 Мбайт (5%)
Заголовок : Живов (DTS 5.1 768)
Язык : Russian
Default : Нет
Forced : Нет

Аудио #6
Идентификатор : 7
Формат : DTS
Формат/Информация : Digital Theater Systems
Идентификатор кодека : A_DTS
Продолжительность : 1 ч. 31 м.
Вид битрейта : Постоянный
Битрейт : 1510 Кбит/сек
Каналы : 6 каналов
Расположение каналов : Front: L C R, Side: L R, LFE
Частота : 48,0 КГц
Битовая глубина : 24 бит
Метод сжатия : С потерями
Размер потока : 988 Мбайт (9%)
Заголовок : English (DTS 5.1 1536)
Язык : English
Default : Нет
Forced : Нет

Аудио #7
Идентификатор : 8
Формат : AC-3
Формат/Информация : Audio Coding 3
Профиль формата : Dolby Digital
Расширение режима : CM (complete main)
Идентификатор кодека : A_AC3
Продолжительность : 1 ч. 31 м.
Вид битрейта : Постоянный
Битрейт : 192 Кбит/сек
Каналы : 2 канала
Расположение каналов : Front: L R
Частота : 48,0 КГц
Битовая глубина : 16 бит
Метод сжатия : С потерями
Размер потока : 126 Мбайт (1%)
Заголовок : Комментарии режиссера Чака Рассела
Язык : English
Default : Нет
Forced : Нет

Аудио #8
Идентификатор : 9
Формат : AC-3
Формат/Информация : Audio Coding 3
Профиль формата : Dolby Digital
Расширение режима : CM (complete main)
Идентификатор кодека : A_AC3
Продолжительность : 1 ч. 31 м.
Вид битрейта : Постоянный
Битрейт : 192 Кбит/сек
Каналы : 2 канала
Расположение каналов : Front: L R
Частота : 48,0 КГц
Битовая глубина : 16 бит
Метод сжатия : С потерями
Размер потока : 126 Мбайт (1%)
Заголовок : Комментарии актёра Дуэйна Джонсона
Язык : English
Default : Нет
Forced : Нет

Текст #1
Идентификатор : 10
Формат : UTF-8
Идентификатор кодека : S_TEXT/UTF8
Идентификатор кодека/Информация : UTF-8 Plain Text
Заголовок : Вариант 1
Язык : Russian
Default : Да
Forced : Нет

Текст #2
Идентификатор : 11
Формат : UTF-8
Идентификатор кодека : S_TEXT/UTF8
Идентификатор кодека/Информация : UTF-8 Plain Text
Заголовок : Вариант 2
Язык : Russian
Default : Нет
Forced : Нет

Текст #3
Идентификатор : 12
Формат : UTF-8
Идентификатор кодека : S_TEXT/UTF8
Идентификатор кодека/Информация : UTF-8 Plain Text
Заголовок : Комментарии режиссера Чака Рассела
Язык : Russian
Default : Нет
Forced : Нет

Текст #4
Идентификатор : 13
Формат : UTF-8
Идентификатор кодека : S_TEXT/UTF8
Идентификатор кодека/Информация : UTF-8 Plain Text
Заголовок : Комментарии актёра Дуэйна Джонсона
Язык : Russian
Default : Нет
Forced : Нет

Текст #5
Идентификатор : 14
Формат : UTF-8
Идентификатор кодека : S_TEXT/UTF8
Идентификатор кодека/Информация : UTF-8 Plain Text
Язык : English
Default : Нет
Forced : Нет

Меню
00:00:00.000 : en:1
00:10:00.000 : en:2
00:20:00.000 : en:3
00:30:00.000 : en:4
00:40:00.000 : en:5
00:50:00.000 : en:6
01:00:00.000 : en:7
01:10:00.000 : en:8
01:20:00.000 : en:9
01:30:00.000 : en:10
Свернуть


Последний раз редактировалось SiAlA 2011-12-26 20:25, всего редактировалось 1 раз.
Не в сети
Профиль  
 Добавлено: 2011-12-26 20:10 (спустя 22 минуты)
Аватара пользователя
Стаж: 8 лет 3 месяца
Возраст: 43
Сообщений: 3290
Спасибок: 21012
Лайков: 3
SiAlA
Внимание: Для DVD и HD-разделов необходимы развернутые технические данные:
Для DVD: Отчет DVDInfo (под спойлером)
Для HD: Отчет BDInfo→ (после нажатия кнопки «scan bitrates» и окончания сканирования) или MediaInfo→ ( весь текст из режима view (вид) → text (текст).) (под спойлером)
Исправьте пожалуйста
Как все исправите, то сообщите пожалуйста в ЛС мне или любому модератору видео. Обязательно со ссылкой на релиз :)
_________________
Изображение
Не в сети
Профиль  
Начать новую темуОтветить на тему  [ Сообщений: 2 ] 
Вы не можете начинать темы
Вы не можете отвечать на сообщения
Вы не можете редактировать свои сообщения
Вы не можете удалять свои сообщения