Правила форума

Здесь находятся раздачи, на которых не было полного источника (сида) более месяца.
Вы можете вернуть релиз в соответствующий раздел, для этого напишите нам в специальной теме и встаньте на раздачу.
Новые релизы, повторяющие релизы в архиве, повторами не считаются.
Начать новую темуОтветить на тему  [ 1 сообщение ] 
Сообщения
 Добавлено: 2013-10-15 22:18
Top-releaser
Аватара пользователя
Стаж: 8 лет 9 месяцев
Сообщений: 479
Спасибок: 20190
Лайков: 16
Изображение

Человек из стали

Man of Steel




Год выпуска: 2013
Страна: США, Канада, Великобритания.
Жанр: Фантастика, фэнтези, боевик, приключения
Продолжительность: 02:23:03
Перевод: Профессиональный (дублированный) - Звук с TS, Оригинал

Режиссёр: Зак Снайдер / Zack Snyder

В ролях: Генри Кавилл, Эми Адамс, Майкл Шеннон, Кевин Костнер, Дайан Лэйн, Лоренс Фишбёрн, Антье Трое, Айелет Зурер, Рассел Кроу, Гарри Дж. Ленникс

Описание: Кларк Кент/Кал-Эл — молодой человек, который чувствует себя чужаком из-за своей невероятной силы. Много лет назад он был отправлен на Землю с развитой планеты Криптон, и теперь задается вопросом: зачем?

Воспитанный приемными родителями Мартой и Джонатаном Кентами, Кларк знает: обладать сверхспособностями — значит принимать сложные решения. Но когда человечество более всего нуждается в стабильности, оно подвергается нападению. Сможет ли герой восстановить мир, или воспользуется своей силой для того, чтобы окончательно его разрушить?



Качество: BDRip 720p
Формат: MKV

Видео: 720x304 (2.37:1), 23.976 fps, XviD build 50 ~1385 kbps avg, 0.26 bit/pixel
Аудио 1: AC-3 at 192 Кбит/сек, 2 каналов, 48,0 КГц [Дубляж]
Аудио 2: DTS at 1510 Кбит/сек, 6 каналов, 48,0 КГц [Оригинал]
Изображение
MediaInfo

Общее
Уникальный идентификатор : 195329675506100828564438400725538146536 (0x92F3208A2E289C0099C311D224C988E8)
Полное имя : C:\Users\Домашний\Desktop\Man.Of.Steel.2013.720p.[nntt].mkv
Формат : Matroska
Версия формата : Version 4 / Version 2
Размер файла : 6,74 Гбайт
Продолжительность : 2 ч. 23 м.
Общий поток : 6747 Кбит/сек
Название фильма : Odessit
Дата кодирования : UTC 2013-10-15 17:56:56
Программа кодирования : mkvmerge v6.2.0 ('Promised Land') built on Apr 28 2013 12:22:01
Библиотека кодирования : libebml v1.3.0 + libmatroska v1.4.0

Видео
Идентификатор : 1
Формат : AVC
Формат/Информация : Advanced Video Codec
Профиль формата : High@L4.1
Параметр CABAC формата : Да
Параметр ReFrames формата : 5 кадров
Идентификатор кодека : V_MPEG4/ISO/AVC
Продолжительность : 2 ч. 23 м.
Битрейт : 5048 Кбит/сек
Ширина : 1280 пикселей
Высота : 536 пикселей
Соотношение сторон : 2,40:1
Режим частоты кадров : Постоянный
Частота кадров : 23,976 кадра/сек
Цветовое пространство : YUV
Субдискретизация насыщенности : 4:2:0
Битовая глубина : 8 бит
Тип развёртки : Прогрессивная
Бит/(Пиксели*Кадры) : 0.307
Размер потока : 4,91 Гбайт (73%)
Библиотека кодирования : x264 core 138 r2358 9e941d1
Настройки программы : cabac=1 / ref=5 / deblock=1:0:0 / analyse=0x3:0x133 / me=umh / subme=8 / psy=1 / psy_rd=1.00:0.00 / mixed_ref=1 / me_range=16 / chroma_me=1 / trellis=1 / 8x8dct=1 / cqm=0 / deadzone=21,11 / fast_pskip=0 / chroma_qp_offset=-2 / threads=24 / lookahead_threads=4 / sliced_threads=0 / nr=0 / decimate=1 / interlaced=0 / bluray_compat=0 / constrained_intra=0 / bframes=3 / b_pyramid=2 / b_adapt=1 / b_bias=0 / direct=1 / weightb=1 / open_gop=0 / weightp=2 / keyint=250 / keyint_min=23 / scenecut=40 / intra_refresh=0 / rc=2pass / mbtree=0 / bitrate=5048 / ratetol=1.0 / qcomp=0.60 / qpmin=0 / qpmax=69 / qpstep=4 / cplxblur=20.0 / qblur=0.5 / ip_ratio=1.40 / pb_ratio=1.30 / aq=1:1.00
Язык : English
Default : Да
Forced : Нет

Аудио #1
Идентификатор : 2
Формат : AC-3
Формат/Информация : Audio Coding 3
Расширение режима : CM (complete main)
Параметр Endianness формата : Big
Идентификатор кодека : A_AC3
Продолжительность : 2 ч. 23 м.
Вид битрейта : Постоянный
Битрейт : 192 Кбит/сек
Каналы : 2 канала
Расположение каналов : Front: L R
Частота : 48,0 КГц
Битовая глубина : 16 бит
Метод сжатия : С потерями
Размер потока : 196 Мбайт (3%)
Заголовок : Звук с TS
Язык : Russian
Default : Да
Forced : Нет

Аудио #2
Идентификатор : 3
Формат : DTS
Формат/Информация : Digital Theater Systems
Режим : 16
Параметр Endianness формата : Big
Идентификатор кодека : A_DTS
Продолжительность : 2 ч. 23 м.
Вид битрейта : Постоянный
Битрейт : 1509 Кбит/сек
Каналы : 6 каналов
Расположение каналов : Front: L C R, Side: L R, LFE
Частота : 48,0 КГц
Битовая глубина : 24 бит
Метод сжатия : С потерями
Размер потока : 1,51 Гбайт (22%)
Заголовок : English
Язык : English
Default : Нет
Forced : Нет

Меню
00:00:00.000 : en:00:00:00.000
00:11:16.968 : en:00:11:16.968
00:20:01.450 : en:00:20:01.450
00:30:09.474 : en:00:30:09.474
00:39:21.609 : en:00:39:21.609
00:48:57.643 : en:00:48:57.643
00:59:03.415 : en:00:59:03.415
01:08:57.884 : en:01:08:57.884
01:17:35.109 : en:01:17:35.109
01:28:36.186 : en:01:28:36.186
01:40:47.792 : en:01:40:47.792
01:50:55.858 : en:01:50:55.858
02:00:53.580 : en:02:00:53.580
02:10:13.556 : en:02:10:13.556
02:12:49.920 : en:02:12:49.920


Свернуть
Скриншоты

Изображение
Изображение
Изображение
Изображение
Изображение
Свернуть
_________________
Изображение
Изображение
Не в сети
Профиль  
Начать новую темуОтветить на тему  [ 1 сообщение ] 
Вы не можете начинать темы
Вы не можете отвечать на сообщения
Вы не можете редактировать свои сообщения
Вы не можете удалять свои сообщения