Правила форума

Здесь находятся раздачи, на которых не было полного источника (сида) более месяца.
Вы можете вернуть релиз в соответствующий раздел, для этого напишите нам в специальной теме и встаньте на раздачу.
Новые релизы, повторяющие релизы в архиве, повторами не считаются.
Начать новую темуОтветить на тему  [ Сообщений: 2 ] 
Сообщения
 Добавлено: 2014-11-27 16:14
RG-ELEKTRO
Аватара пользователя
Стаж: 2 года 3 месяца
Сообщений: 7928
Спасибок: 53761
Лайков: 3304
Черепашки-ниндзя / Teenage Mutant Ninja Turtles


Изображение
Выпущено: США / Gama Entertainment Partners, Heavy Metal, Mednick Productions, Nickelodeon Movies, Paramount Pictures, Platinum Dunes
Год выпуска: 2014
Жанр: Фантастика, фэнтези, боевик, комедия, приключения
Продолжительность: 01:41:18
Перевод: Дублированный (iTunes)

Режиссер: Джонатан Либесман

В ролях: Меган Фокс, Уилл Арнетт, Уильям Фихтнер, Алан Ричсон, Ноэль Фишер, Пит Пложек, Джонни Ноксвилл, Джереми Ховард, Дэнни Вудберн, Тони Шэлоуб

Описание: Будучи маленькой, Эйприл часто бывала в лаборатории отца, генного инженера, который работал над проектом создания суперсолдат. В результате пожара отец девочки погиб, а все его разработки были безвозвратно утеряны... Все, кроме четырёх подопытных черепашек и крысы. Их Эйприл спустила в канализацию, в надежде, что те как-нибудь смогут выжить. Спустя четырнадцать лет Эйприл вновь встречается с ними. Вот только встреча омрачена событиями, о которых узнаёт юная репортёрша и её друг-оператор: Шреддер, глава клана Фут, решил заразить весь Нью-Йорк смертельным вирусом, а позднее заработать шантажом целое состояние. И теперь всё в руках, то есть лапах, молодых черепашек-ниндзя, неугомонной Эприл О'Нил и её друга Вернона.

Изображение || Изображение

Качество: BDRip 1080p
Формат: MKV
Видео: MPEG-4 AVC, 15,0 Мбит/сек, 1920х1080, 23.976 кадр/с
Аудио 1: Русский, AC3 5.1, 384 kbps, 48 kHz (DUB, iTunes)
Аудио 2: Английский, AC3 5.1, 640 kbps, 48 kHz (Original)


"MI"
Формат : Matroska
Версия формата : Version 3 / Version 2
Размер файла : 12,1 Гбайт
Продолжительность : 1 ч. 41 м.
Общий поток : 17,2 Мбит/сек
Название фильма : Teenage
Дата кодирования : UTC 2014-11-27 09:41:36
Программа кодирования : mkvmerge v5.2.0 ('I can't explain') built on Dec 18 2011 18:12:03
Библиотека кодирования : libebml v1.2.3 + libmatroska v1.3.0

Видео
Идентификатор : 1
Формат : AVC
Формат/Информация : Advanced Video Codec
Профиль формата : High@L4.1
MultiView_Count : 2
MultiView_Layout : Top-Bottom (left eye first)
Параметр CABAC формата : Да
Параметр ReFrames формата : 4 кадра
Идентификатор кодека : V_MPEG4/ISO/AVC
Продолжительность : 1 ч. 41 м.
Битрейт : 15,8 Мбит/сек
Номинальный битрейт : 15,0 Мбит/сек
Ширина : 1920 пикселей
Высота : 1080 пикселей
Соотношение сторон : 16:9
Режим частоты кадров : Постоянный
Частота кадров : 23,976 кадра/сек
Цветовое пространство : YUV
Субдискретизация насыщенности : 4:2:0
Битовая глубина : 8 бит
Тип развёртки : Прогрессивная
Бит/(Пиксели*Кадры) : 0.318
Размер потока : 11,2 Гбайт (92%)
Библиотека кодирования : x264 core 142 r2389 956c8d8
Настройки программы : cabac=1 / ref=4 / deblock=1:-3:-3 / analyse=0x3:0x113 / me=umh / subme=10 / psy=1 / psy_rd=1.00:0.00 / mixed_ref=1 / me_range=32 / chroma_me=1 / trellis=2 / 8x8dct=1 / cqm=0 / deadzone=21,11 / fast_pskip=0 / chroma_qp_offset=-4 / threads=24 / lookahead_threads=2 / sliced_threads=0 / nr=0 / decimate=0 / interlaced=0 / bluray_compat=0 / constrained_intra=0 / bframes=6 / b_pyramid=2 / b_adapt=2 / b_bias=0 / direct=3 / weightb=1 / open_gop=0 / weightp=2 / keyint=250 / keyint_min=23 / scenecut=40 / intra_refresh=0 / rc=2pass / mbtree=0 / bitrate=15000 / ratetol=1.0 / qcomp=0.80 / qpmin=0 / qpmax=69 / qpstep=4 / cplxblur=20.0 / qblur=0.5 / frame-packing=4 / ip_ratio=1.30 / pb_ratio=1.30 / aq=2:0.90
Язык : English
Default : Да
Forced : Нет

Аудио #1
Идентификатор : 2
Формат : AC-3
Формат/Информация : Audio Coding 3
Расширение режима : CM (complete main)
Параметр Endianness формата : Big
Идентификатор кодека : A_AC3
Продолжительность : 1 ч. 41 м.
Вид битрейта : Постоянный
Битрейт : 384 Кбит/сек
Каналы : 6 каналов
Расположение каналов : Front: L C R, Side: L R, LFE
Частота : 48,0 КГц
Битовая глубина : 16 бит
Метод сжатия : С потерями
Размер потока : 278 Мбайт (2%)
Заголовок : DUB, iTunes
Язык : Russian
Default : Да
Forced : Нет

Аудио #2
Идентификатор : 3
Формат : AC-3
Формат/Информация : Audio Coding 3
Расширение режима : CM (complete main)
Параметр Endianness формата : Big
Идентификатор кодека : A_AC3
Продолжительность : 1 ч. 41 м.
Вид битрейта : Постоянный
Битрейт : 640 Кбит/сек
Каналы : 6 каналов
Расположение каналов : Front: L C R, Side: L R, LFE
Частота : 48,0 КГц
Битовая глубина : 16 бит
Метод сжатия : С потерями
Размер потока : 464 Мбайт (4%)
Язык : English
Default : Нет
Forced : Нет

Текст #1
Идентификатор : 4
Формат : UTF-8
Идентификатор кодека : S_TEXT/UTF8
Идентификатор кодека/Информация : UTF-8 Plain Text
Заголовок : Forced
Язык : Russian
Default : Да
Forced : Нет

Текст #2
Идентификатор : 5
Формат : UTF-8
Идентификатор кодека : S_TEXT/UTF8
Идентификатор кодека/Информация : UTF-8 Plain Text
Заголовок : Full
Язык : English
Default : Нет
Forced : Нет

Текст #3
Идентификатор : 6
Формат : UTF-8
Идентификатор кодека : S_TEXT/UTF8
Идентификатор кодека/Информация : UTF-8 Plain Text
Заголовок : SDH
Язык : English
Default : Нет
Forced : Нет

Текст #4
Идентификатор : 7
Формат : UTF-8
Идентификатор кодека : S_TEXT/UTF8
Идентификатор кодека/Информация : UTF-8 Plain Text
Заголовок : SDH, Colored
Язык : English
Default : Нет
Forced : Нет

Меню
00:00:00.000 : :1 - 0:00:00
00:02:42.287 : :2 - 0:02:42
00:06:00.485 : :3 - 0:06:00
00:11:51.544 : :4 - 0:11:51
00:16:01.835 : :5 - 0:16:01
00:22:02.946 : :6 - 0:22:02
00:28:22.784 : :7 - 0:28:22
00:34:01.831 : :8 - 0:34:01
00:38:04.031 : :9 - 0:38:04
00:42:10.110 : :10 - 0:42:10
00:48:36.413 : :11 - 0:48:36
00:55:46.092 : :12 - 0:55:46
01:00:44.265 : :13 - 1:00:44
01:07:46.604 : :14 - 1:07:46
01:15:30.359 : :15 - 1:15:30
01:24:10.795 : :16 - 1:24:10
01:30:17.036 : :17 - 1:30:17
01:34:13.564 : :18 - 1:34:13
01:41:17.780 : :19 - 1:41:17

-----------------x264iNFO----------------
x264 [info]: frame I:1004 Avg QP:15.42 size:248606
x264 [info]: frame P:42637 Avg QP:17.48 size:139990
x264 [info]: frame B:102086 Avg QP:20.22 size: 59207
Свернуть
"Скриншоты"
Изображение
Изображение
Изображение
Свернуть

_________________
Не ищите меня в "ВКонтакте", в "Одноклассниках" меня нет - я на трекерах сижу!
 Alex-ezhow нравится это.
Не в сети
Профиль  
 Добавлено: 2014-11-30 18:48 (спустя 3 дня)
Аватара пользователя
Стаж: 8 лет 1 месяц
Сообщений: 51
Спасибок: 188
Лайков: 1
Кто посмотрел отпишитесь...3Д чёткое(не двоиться)?Звук в норме?
Не в сети
Профиль  
Начать новую темуОтветить на тему  [ Сообщений: 2 ] 
Вы не можете начинать темы
Вы не можете отвечать на сообщения
Вы не можете редактировать свои сообщения
Вы не можете удалять свои сообщения