Правила форума

Здесь находятся раздачи, на которых не было полного источника (сида) более месяца.
Вы можете вернуть релиз в соответствующий раздел, для этого напишите нам в специальной теме и встаньте на раздачу.
Новые релизы, повторяющие релизы в архиве, повторами не считаются.
Начать новую темуОтветить на тему  [ Сообщений: 2 ] 
Сообщения
 Добавлено: 2012-03-02 07:40
Руководитель релиз-группы
Аватара пользователя
Стаж: 7 лет 4 месяца
Возраст: 31
Сообщений: 3407
Спасибок: 46729
Лайков: 5
Изображение

Что-то не так с Кевином
We Need to Talk About Kevin


Год выпуска: 2011
Страна: США, Великобритания
Жанр: триллер, драма
Продолжительность: 01:47:22
Перевод: Профессиональный (многоголосый, закадровый)
Режиссер: Линн Рэмси
Сценарий: Линн Рэмси, Рори Киннер, Лайонел Шрайвер
Продюсер: Люк Роуг, Роберт Салерно, Дженнифер Фокс
Оператор: Шеймас МакГарви
Композитор: Джонни Гринвуд
В ролях: Тильда Суинтон, Джон Си Райли, Эзра Миллер, Джаспер Ньюэлл, Рок Дер, Эшли Герасимович, Шаван Фэллон, Алекс Манетт, Кеннет Франклин, Лесли Лайлс
Сборы в мире: $4 972 117
Описание: Отложив в сторону все личные и профессиональные амбиции, Ева посвящает жизнь рождению и воспитанию сына. Однако их отношения с самого начала оказываются крайне сложными. В пятнадцать лет Кевин совершает непоправимое, и Ева мучается сознанием ответственности и собственной вины. Достаточно ли она любила своего сына? Какова доля ее вины в происшедшем?..
Изображение
MPAA: Изображение
Релиз: Изображение Раздача группы: Изображение
Качество: DVD5 (сжатый)
Формат: DVD Video
Видео: MPEG2; PAL 16:9 (720x576)
Аудио #1: Dolby AC3, 6 ch, 256 Kbps Russian
Аудио #2: Dolby AC3, 6 ch, 256 Kbps English
Субтитры: русские, украинские
Дополнительная информация :
Исходник : DVD9 (7.29 Гб) [лицензия, PAL 16:9]
Убрано : допы, реклама, заставки, предупреждения, Russian (DTS, 6 ch)
Сжатие фильма : 29.8 % сжатия (без учета ручного перераспределения битрейта, за счет большего сжатия конечных титров)
использовались программы
    DVDRemakePro
    Photoshop
    MuxMan
    Rebuilder и CCE (Cinema Craft Encoder), 5 проходов
    Работоспособность проверена на софтовом плеере Windows Media и бытовом LG
Свернуть
DVDInfo
    Title: Chto-to.ne.tak.s.Kevinom_2011_DVD5.[R.G.Daredevil]
    Size: 4.37 Gb ( 4 584 256,00 KBytes ) - DVD-5
    Enabled regions: 1, 2, 3, 4, 5, 6, 7, 8

    VTS_01 :
    Play Length: 00:00:00
    Video: PAL 16:9 (720x576) VBR, Auto Letterboxed

    VTS_02 :
    Play Length: 01:47:22
    Video: PAL 16:9 (720x576) VBR, Auto Letterboxed
    Audio:
    Russian (Dolby AC3, 6 ch)
    Russian (DTS, 6 ch)
    Subtitles:
    Russian
    Ukrainian

    VTS_03 :
    Play Length: 00:00:00
    Video: PAL 16:9 (720x576) VBR, Auto Letterboxed
    Audio:
    Russian (Dolby AC3, 2 ch)
    Russian (Dolby AC3, 2 ch)
    English (Dolby AC3, 2 ch)
    Subtitles:
    Russian
    Ukrainian

    VTS_04 :
    Play Length: 00:00:00
    Video: PAL 16:9 (720x576) VBR, Auto Letterboxed
    Audio:
    Russian (Dolby AC3, 2 ch)
    Russian (Dolby AC3, 2 ch)
    English (Dolby AC3, 2 ch)
    Subtitles:
    Russian
    Ukrainian

    VTS_05 :
    Play Length: 00:00:00
    Video: PAL 16:9 (720x576) VBR, Auto Letterboxed
    Audio:
    Russian (Dolby AC3, 2 ch)
    Russian (Dolby AC3, 2 ch)
    English (Dolby AC3, 2 ch)
    Subtitles:
    Russian
    Ukrainian

    VTS_06 :
    Play Length: 00:00:00
    Video: PAL 16:9 (720x576) VBR, Auto Letterboxed
    Audio:
    Russian (Dolby AC3, 2 ch)
    Russian (Dolby AC3, 2 ch)
    English (Dolby AC3, 2 ch)
    Subtitles:
    Russian
    Ukrainian

    VTS_07 :
    Play Length: 00:00:00
    Video: PAL 16:9 (720x576) VBR, Auto Letterboxed
    Audio:
    Russian (Dolby AC3, 2 ch)
    Russian (Dolby AC3, 2 ch)
    English (Dolby AC3, 2 ch)
    Subtitles:
    Russian
    Ukrainian

    VTS_08 :
    Play Length: 00:00:00
    Video: PAL 16:9 (720x576) VBR, Auto Letterboxed
    Audio:
    Russian (Dolby AC3, 2 ch)
    Russian (Dolby AC3, 2 ch)
    English (Dolby AC3, 2 ch)
    Subtitles:
    Russian
    Ukrainian

    VTS_09 :
    Play Length: 00:00:00
    Video: PAL 16:9 (720x576) VBR, Auto Letterboxed
    Audio:
    Russian (Dolby AC3, 2 ch)
    Russian (Dolby AC3, 2 ch)
    English (Dolby AC3, 2 ch)
    Subtitles:
    Russian
    Ukrainian

    VTS_10 :
    Play Length: 00:00:00
    Video: PAL 16:9 (720x576) VBR, Auto Letterboxed
    Audio:
    Russian (Dolby AC3, 2 ch)
    Russian (Dolby AC3, 2 ch)
    English (Dolby AC3, 2 ch)
    Subtitles:
    Russian
    Ukrainian
Свернуть
mediainfo
    Формат : MPEG-PS
    Размер файла : 1024 Мбайт
    Продолжительность : 22 м.
    Режим общего битрейта : Переменный
    Общий поток : 6339 Кбит/сек

    Видео
    Идентификатор : 224 (0xE0)
    Формат : MPEG Video
    Версия формата : Version 2
    Профиль формата : Main@Main
    Параметр BVOP формата : Да
    Параметр матрицы формата : Выборочная
    Продолжительность : 22 м.
    Вид битрейта : Переменный
    Битрейт : 5701 Кбит/сек
    Максимальный битрейт : 8672 Кбит/сек
    Ширина : 720 пикселей
    Высота : 576 пикселей
    Соотношение сторон : 16:9
    Частота кадров : 25,000 кадров/сек
    Стандарт вещания : PAL
    Цветовое пространство : YUV
    Субдискретизация насыщенности : 4:2:0
    Битовая глубина : 8 бит
    Тип развёртки : Чересстрочная
    Порядок развёртки : Верхнее поле первое
    Метод сжатия : С потерями
    Бит/(Пиксели*Кадры) : 0.550
    Размер потока : 921 Мбайт (90%)

    Аудио #1
    Идентификатор : 189 (0xBD)-128 (0x80)
    Формат : AC-3
    Формат/Информация : Audio Coding 3
    Расширение режима : CM (complete main)
    Режим смешивания : DVD-Video
    Продолжительность : 22 м.
    Вид битрейта : Постоянный
    Битрейт : 256 Кбит/сек
    Каналы : 6 каналов
    Расположение каналов : Front: L C R, Side: L R, LFE
    Частота : 48,0 КГц
    Битовая глубина : 16 бит
    Метод сжатия : С потерями
    Размер потока : 41,3 Мбайт (4%)

    Аудио #2
    Идентификатор : 189 (0xBD)-130 (0x82)
    Формат : AC-3
    Формат/Информация : Audio Coding 3
    Расширение режима : CM (complete main)
    Режим смешивания : DVD-Video
    Продолжительность : 22 м.
    Вид битрейта : Постоянный
    Битрейт : 256 Кбит/сек
    Каналы : 6 каналов
    Расположение каналов : Front: L C R, Side: L R, LFE
    Частота : 48,0 КГц
    Битовая глубина : 16 бит
    Метод сжатия : С потерями
    Размер потока : 41,3 Мбайт (4%)

    Меню
Свернуть
Скриншоты

меню
Изображение
Изображение
Изображение
Свернуть
Изображение
Изображение
Изображение
Изображение
Свернуть
Не в сети
Профиль  
 Добавлено: 2012-03-03 10:19 (спустя 1 день 2 часа)
Аватара пользователя
Стаж: 8 лет 3 месяца
Сообщений: 80
Спасибок: 242
Выложите субтитры отдельно, если не сложно
Не в сети
Профиль  
Начать новую темуОтветить на тему  [ Сообщений: 2 ] 
Вы не можете начинать темы
Вы не можете отвечать на сообщения
Вы не можете редактировать свои сообщения
Вы не можете удалять свои сообщения