Правила форума

Здесь находятся раздачи, на которых не было полного источника (сида) более месяца.
Вы можете вернуть релиз в соответствующий раздел, для этого напишите нам в специальной теме и встаньте на раздачу.
Новые релизы, повторяющие релизы в архиве, повторами не считаются.
Начать новую темуОтветить на тему  [ Сообщений: 11 ] 
Сообщения
 Добавлено: 2012-02-16 22:20
Top-releaser
Аватара пользователя
Стаж: 8 лет 7 месяцев
Сообщений: 1286
Спасибок: 3421
Лайков: 7
Чужие: Квадрология / Aliens: Quadrilogy

Изображение

Чужой / Alien (1979)
Чужой / Alien


«В космосе твой крик никто не услышит...»

Изображение
Год выпуска: 1979
Страна: США, Великобритания
Жанр: ужасы, фантастика
Продолжительность: 01:55:49
Перевод: Профессиональный (полное дублирование) + Многоголосый, закадровый (Киномания) + Многоголосый, закадровый (Первый канал) + Многоголосый, закадровый (Позитив-Мультимедиа) + Многоголосый, закадровый (Супербит) + Многоголосый, закадровый (LDV) + Многоголосый, закадровый (1+1) + Авторский, одноголосый (Гаврилов) + Авторский, одноголосый (Пучков aka "Гоблин") + Авторский, одноголосый (Живов) + Оригинал + Комментарии + Субтитры (English (Full), Russian (Full), Ukrainian (Full), Russian (Commentary 1), Russian (Commentary 2), Russian (на расширенные моменты - Гоблин))

Режиссер: Ридли Скотт
Сценарий: Дэн О’Бэннон, Рональд Шусетт
Продюсер: Гордон Кэрролл, Дэвид Гайлер, Уолтер Хилл
Оператор: Дерек Ванлинт
Композитор: Джерри Голдсмит

В ролях: Сигурни Уивер, Том Скеррит, Вероника Картрайт, Гарри Дин Стэнтон, Джон Хёрт, Иэн Холм, Яфет Котто, Боладжи Бадеджо, Хелен Хортон, Эдди Пауэлл

Описание: В далеком будущем возвращающийся на Землю грузовой космический корабль перехватывает исходящий с неизвестной планеты неопознанный сигнал. Экипаж принимает решение совершить посадку и разобраться, в чем дело. Оказавшись на планете, астронавты повсюду обнаруживают неопознанные предметы, по виду напоминающие гигантские коконы…

kinopoisk.ru: 7.989 (32268)

Доп. информация
Бюджет: $11 000 000
Сборы в мире: $104 931 801
Премьера (мир): 25 мая 1979
Рейтинг R — Restricted. Подростки до 17 лет допускаются на фильм только в сопровождении одного из родителей
Изображение
Ограничение — до 17 лет требуется сопровождение родителя или взрослого опекуна (возраст может меняться в некоторых регионах). Данный рейтинг показывает, что оценочная комиссия заключила, что некоторый материал оценённого фильма предназначается для взрослых. Родители должны больше узнать о фильме прежде, чем взять на его просмотр детей. Рейтинг R также может быть назначен из-за используемого в фильме языка, темы, насилия, секса или изображения употребления наркотиков.
Свернуть
Свернуть
Знаете ли вы, что...
* Ридли Скотт признавался в многочисленных интервью, что он хотел снять более мрачный фильм с фатальной развязкой. В частности, картина должна была заканчиваться сценой откусывания головы Рипли. Но кинокомпания «20th Century Fox» не пошла на поводу у режиссера и предложила смягчить окончание.
* Ридли Скотт занял режиссерское кресло после того, как его покинули четыре предыдущих кандидата.
* В первом варианте сценария Рипли была мужчиной.
* Роль Рипли изначально предлагалась Веронике Катрайт, но впоследствии выбор пал на Сигурни Уивер. Впрочем, Вероника также получила в проекте одну из главных ролей.
* Многие диалоги являются импровизацией.
* В костюм «чужого» мог облачиться Питер Мэйхью, исполнитель роли Чубаки в «Звездных Войнах». Рост этого британского гиганта составляет 2,21 м. В итоге эта роль досталась Боладжи Бадеджо (2,18 м).
* Для съемок было изготовлено три варианта «Чужих»: сама модель и два костюма, в которые облачались статисты.
* Отснятые сцены, не вошедшие в театральную версию, но представленные в режиссерской:
- Рипли обнаруживает Далласа и Брэтта, завернутых в коконы. Даллас практически полностью покрыт личинками и умоляет Рипли прикончить его. Рипли удовлетворяет просьбу товарища и сжигает его огнеметом;
- Рипли и Ламберт обсуждают, является ли Эш девственником.
Неанглоязычные версии картины выходили в прокат под названием «Инопланетянин: Восьмой пассажир».
* Некий писатель А. Е. Ван Фогт обвинил создателей картины в плагиате, утверждая, что они украли его идею, описанную в книгах «Discord in Scarlet» (1939 г.) и «Voyage of the Space Beagle» (1950 г.). Но судебный процесс он выиграть не сумел.
* По сценарию между Рипли и Далласом должна была пройти постельная сцена, но ее решили не снимать.
* Вероника Картрайт после выхода картины на экраны призналась, что в сцене, где ноги ее героини опутывает хвост «чужого», на самом деле ноги не ее. Они принадлежат Гарри Дину Стэнтону (Брэтт), и происходит данное событие при съемках абсолютно другой сцены.
* В первых набросках художника пришелец был снабжен глазами, но для съемок картины было принято решение избавиться от них, дабы придать существу более зловещий вид.
* Ни одна из кинокомпаний не хотела браться за этот проект, посчитав его слишком жестоким и кровавым. Однако вскоре нашелся смельчак по имени Уолтер Хилл, представляющий интересы компании «20th Century Fox». Тем не менее, он тоже внес свою лепту в судьбу картины, посчитав первый вариант сценария чересчур мрачным. Ридли Скотт был вынужден удалить слишком жестокие сцены.
* «Сырой» вариант картины длился 192 минуты (итоговая версия намного короче — 117 минут).
* Йен Холм, исполнитель роли Эша, признался, что при съемках гибели своего героя, муляж головы персонажа был нашпигован спагетти и луковыми кольцами.
* Уолтер Хилл и Дэвид Гилер изменили имена всех персонажей в сценарии Дэна О’Бэннона и Рональда Шусетта. В сценарии О’Бэннона и Шусетта герои были прописаны таким образом, что их могли сыграть как мужчины, так и женщины. По словам сценаристов, они писали роль Рипли исключительно как мужскую.
* Ханс Руди Гигер создал несколько моделей чужих, из которых был выбран окончательный вариант.
* На одном из этапов разработки проекта создатели фильма подумывали сделать тело чужого полупрозрачным.
* Известнейший слух – никто из актеров, за исключением Джона Хёрта, не знал, что случится при «рождении» чужого – по большому счету, правдив. Актерам лишь в общих чертах, не вдаваясь в подробности, рассказали о том, что будет происходить в данной сцене: например, Вероника Картрайт никак не ожидала, что её обрызгают кровью.
* Одна из книг Джозефа Конрада называется «Ностромо».
* По словам Дэна О’Бэннона, идея, вынашивания чужеродного организма в человеческом теле, пришла ему в голову после того, как он узнал, что осы дорожные откладывают свои личинки в брюшках пауков. Однако, данный вид ос откладывает яйца на теле своей жертвы, а не внутри неё. Стоит добавить, что отдельные виды ос всё же откладывают яйца в телах других организмов: например, осы ихневмон и осы бракониды. Первые откладывают яйца в различных жуков, вторые – в определенные виды гусениц. В обоих случаях организм-носитель погибает при рождении осы.
* Для сцены внутри инопланетного космического корабля было создано 130 яиц чужих.
* Восемнадцать лет спустя после выхода фильма на экраны Х.Р. Гигер подаст в суд на студию «20th Century Fox» за то, что его имя отсутствовало в титрах к «Чужому: Воскрешение» (1997), и выиграет дело.
* Режиссерская версия фильма, вышедшая в 2003 году, стала возможной благодаря 100 коробкам с пленками картины, обнаруженным на одном из складов студии.
* Детали для декораций внутренних помещений «Ностромо» были найдены на кладбище самолетов.
* В сцене, где команда «Ностромо» просыпается после гиперсна, груди Вероники Картрайт и Сигурни Уивер были покрыты киперной лентой.
* Изначально Джон Финч должен был сыграть Кейна, но в первый день съёмок у него случился приступ диабета. Ридли Скотт знал, что Джон Хёрт не задействован на других проектах и предложил ему роль. Уже на следующий день Хёрт приступил к съёмкам.
* Для того чтобы создать эффект резкого ускорения «Ностромо», несколько человек трясли и раскачивали кресла, в которых сидели актеры.
* Когда таможенники увидели модели фэйсхаггеров Х.Р. Гигера, то они были настолько шокированы, что немедленно задержали его на американской границе. Дэну О’Бэннону пришлось приехать в аэропорт Лос-Анджелеса и объяснить властям, что это – модели для фильма ужасов.
* Сцена «рождения» чужого была снята с первого дубля, используя четыре камеры.
* Для того чтобы испугать кота Джонса, перед ним посадили немецкую овчарку.
* Сцена, в которой Даллас преследует чужого в вентиляционных шахтах, а остальная команда корабля предупреждает его, чтобы он поскорее покинул вентиляционную систему, была снята за один день.
* Рон Кобб, делавший наброски для фильма, предложил, чтобы у чужого в качестве крови была кислота.
* Джерри Голдсмит был в ярости, узнав, что Ридли Скотт и монтажер фильма Терри Роулингс существенно изменили его музыку, написанную специально для фильма.
* Эш отсутствовал в первой версии сценария Дэна О’Бэннона.
* Подкрашенная вода использовалась в качестве «крови» Эша.
* Дэн О’Бэннон и Х.Р. Гигер познакомились на разработке «Дюны» Алехандро Ходоровси – проекта, который так и не состоялся.
* Сигурни Уивер была утверждена на роль Рипли, после того как продюсеры увидели пробы актрисы, на которых она произносила финальный монолог на борту спасательной шлюпки «Ностромо».
* Идея фильма возникла у Дэна О’Бэннона, после того как он разочаровался реализацией своего первого сценария, «Темная звезда» (1974), который поставил Джон Карпентер. О’Бэннон писал сценарий «Чужого» с прицелом на гораздо больший бюджет, чем был у «Темной звезды», и значительно расширив хоррор-элемент.
* Еще до начала работы над сценарием к «Чужому» Рональд Шусетт приобрел права на рассказ Филипа Дика «We Can Remember It for You Wholesale» (который впоследствии трансформируется в сценарий к картине «Вспомнить всё» (1990)) и попросил Дэна О’Бэннона помочь ему адаптировать произведение известного фантаста для большего экрана. В то же самое время О’Бэннон придумал историю об инопланетянине на космическом корабле. Новоиспеченные партнеры решили сначала написать сценарий об инопланетном монстре, т.к., по их мнению, данный проект было легче реализовать.
* Первоначальное название картины – «Star Beast».
* Уолтер Хилл и Дэвид Гилер предложили идею того, чтобы Эш был роботом.
* В первые шесть минут фильма нет диалогов.
* Слово «fuck» произносится по ходу действия фильма 5 раз (Рипли говорит «fuck» четыре раза за фильм).
* Студия «20th Century Fox» увеличила бюджет фильма в два раза (с $4.2 миллионов до $8.4), после того как Ридли Скотт показал свои раскадровки.
* Ридли Скотт с радостью согласился поставить фильм, т.к. разработка предыдущего проекта, на котором он работал, зашла в тупик.
* Три модели «Ностромо» различной длины и массы были построены для съёмок фильма.
* Продюсеры третьесортного фильма ужасов «It! The Terror from Beyond Space» (1958) подумывали подать на авторов «Чужого» в суд за плагиат, но не стали этого делать.
* Изначально космический корабль должен был называться «Снарк» (фантастическое животное из поэмы Л. Кэрролла «Охота на Снарка» – прим.), затем название изменили на «Левиафан» (морское чудовище, описанное в Библии; громадина, плавучая махина (о судне) – прим.). В конце концов, было решено остановиться на «Ностромо» (название корабля повторяет название книги Джозефа Конрада. На итальянском «nostromo» означает «боцман» - прим.).
* Имя компьютера «Ностромо» - «Мать». Имя компьютера на корабле в «Чужом: Воскрешение» (1997) – «Отец».
* Два тридцатисекундных обратных отсчета в фильме продолжаются соответственно 36 и 37 секунд.
* Вероника Картрайт узнала о том, что она не получила главную роль только тогда, когда её попросили прийти на съёмочную площадку для примерки нескольких костюмов её героини, Ламберт.
* Длина «Ностромо» составляет 800 футов (примерно 245 метров), в то время как он транспортирует груз длиной в полторы мили (примерно 2,4 километра).
* Космические костюмы, в которые одеты Том Скерритт, Джон Хёрт и Вероника Картрайт, были чрезвычайно неудобны, сделаны из нейлона и не пропускали воздух. Актеры, одетые в такие костюмы, изнывали от невероятной жары и очень часто падали в обморок. На съёмках постоянно присутствовала медсестра, которая следила за физическим состоянием трех актеров, и оказывала им первую помощь. Только после того, как для съёмок одной из сцен в костюмы одели детей Ридли Скотта и Дерека Ванлинта (оператор), и они также потеряли сознание, были внесены некоторые изменения в дизайн костюмов.
* В начале съёмок Ридли Скотту приходилось каждый день выслушивать наставления девяти продюсеров, которые постоянно жаловались на то, что Ридли уж слишком много времени тратит на съёмки той или иной сцены.
* В первый день съёмок сцен с участием кота Джонса, кожа Сигурни Уивер покрылась сыпью. Сигурни испугалась, что у неё аллергия на кошек, и её вполне могут уволить, т.к. для студии было намного проще заменить никому неизвестную актрису, чем найти четырех идентичных котов. Как оказалось, у Уивер была аллергия на глицерин, который служил имитацией пота на коже актрисы.
* Название компании - Weylan Yutani. В «Чужих» (1986) Джеймс Камерон немного подкорректирует название - Weyland Yutani.
* В костюме чужого были использованы пластилин и детали моторов Rolls Royce.
* Создатель спецэффектов Брайан Джонсон работал одновременно над этим фильмом и картиной «Звездные войны: Эпизод V – Империя наносит ответный удар» (1980).
* После первых недель съёмок, Дэн О’Бэннон попросил у продюсеров разрешения посмотреть отснятый материал, но получил отказ. Однако, О’Бэннону удалось просмотреть материал: он договорился с киномехаником и находился в комнате с кинопроектором во время показа чернового материала.
* Для того чтобы снять сцену «рождения» чужого, Джону Хёрту пришлось просунуть голову, плечи и руки в специальную дыру в столе, соединенном с искусственным туловищем, в котором содержался сжатый воздух и множество внутренностей животных.
* Вопль, который издает новорожденный чужой, – это комбинация звуков шипения гадюки, свинячьего визга и плача ребенка.
* Для того чтобы снять сцену гибели Паркера, была сделана специальная резиновая голова Яфета Котто, набитая свинячьими мозгами. Лоб был сделан из воска, для того чтобы зубы чужого могли с легкостью его пробить.
* Для сцен, где чужой перемещается по кораблю, декорации помещений специально перестраивали под Боладжи Бадеджо, для того чтобы облегчить его движения и предоставить ему больше мест, где можно спрятаться. Однако, не смотря на все усилия декораторов, Боладжи несколько раз рвал костюм чужого.
* В сцене, где Эш проводит аутопсию фэйсхаггера, тело последнего было сделано из свежих моллюсков, устриц и овечьей почки.
* Некоторые мониторы с «Ностромо» будут также использованы в «Бегущем по лезвию» (1982).
* Эмбриональные движения фэйсхаггера (до того как он выпрыгивает из яйца) были созданы руками Ридли Скотта, одетыми в резиновые перчатки.
* В сцене, где Ламберт, Даллас и Кейн осматривают инопланетного пилота, их роли исполнили дети Ридли Скотта и Дерека Ванлинта, для того чтобы придать помещению и инопланетянину больший размер.
* В минисериале «Голубая планета» (2001), Дэвид Аттэнборо говорит, что чужой был смоделирован с фронимы, существа, обитающего на очень больших океанских глубинах. Его тело составляет 2,5 сантиметра в длину. На вид существо напоминает креветку с глазами, челюстью и зубами как у монстра, созданного Х.Р. Гигером.
* Название компании «Weyland Yutani» появляется на экране компьютера во время посадки.
* Звук, который можно услышать на заднем плане в лаборатории, где лежит Кейн с фэйсхаггером на голове, также можно услышать в комнате Декарда в «Бегущем по лезвию» (1982).
* Для декорации пола на «Ностромо» были использованы перевернутые и перекрашенные ящики для бутылок из-под молока.
* Изначально у чужого должны были быть четко выделенные глаза.
* Ни одна крупная студия в Голливуде, включая «20th Century Fox», не хотела иметь ничего общего с данным проектом из-за чрезмерной жестокости и кровавости. Ситуация изменились только тогда, когда проектом заинтересовался Уолтер Хилл. Студия «20th Century Fox» согласилась профинансировать картину при условии, что будет уменьшено количество насилия. Но даже после всех мер, предпринятых студией, создателям фильма пришлось перемонтировать картину, т.к. она получилась слишком кровавой.
* Несмотря на то, что в 2003 году вышла режиссерская версия фильма, куда было добавлено несколько новых сцен, Ридли Скотт сделал специальную пометку в DVD-издании, гласящую, что настоящей режиссерской версией фильма он считает версию, смонтированную в 1979 году, еще до выхода картины на экраны. Режиссерская версия, в настоящее время доступная на DVD, была названа режиссерской, исходя лишь из коммерческих соображений.
* Для того чтобы добиться эффекта пара, идущего из шлемов, был использован аэрозоль, который распрыскивали изнутри шлемов.
* Автор рекламных слоганов, Барбара Гипс, придумала известнейший тэглайн: «В космосе, никто не сможет услышать твой вопль».
* Боладжи Бадеджо, сыгравший чужого, до начала фильма брал уроки пантомимы и занимался Тай-Цзи Цюань (китайская гимнастика).
* В начальной сцене, когда мы видим различные помещения «Ностромо», можно заметить кофеварку «Krups». Точно такая же модель кофеварки была использована как «Мистер Синтез» в фильме «Назад в будущее» (1985).
* Большинство известных продюсеров имеет целый штат людей, которые читают сценарии, а затем пишут краткую версию сюжета. Сценарий «Чужого» был охарактеризован, как «это почти «Челюсти», но в космосе».
* Роджер Дикен, отвечавший за спецэффекты в сцене «рождения» чужого, хотел, чтобы последний выбирался из груди Кейна с помощью маленьких рук, но его идею отклонили.
* Для создания тонкого слоя тумана, который покрывает яйца чужих, была использована дымовая установка, позаимствованная у группы «The Who».
* На пост режиссера рассматривались кандидатуры Роберта Олдрича, Питера Йэтса, Джека Клэйтона, Дэна О’Бэннона и Уолтера Хилла.
* Внутренности яиц чужих, которые рассматривает Кейн, содержали настоящие органические элементы. В их дизайне были использованы сердца и желудки коров. Хвост фэйсхаггера – овечьи кишки.
* Билл Патерсон мог исполнить одну из ролей в фильме.
* Желая узнать женское мнение о Сигурни Уивер в роли Рипли, Ридли Скотт показал её пробы нескольким женщинам из производственного отдела, которые положительно отозвались о её игре.
* По словам Ридли Скотта, вдохновением для съёмок фильма ему послужили «Звездные войны» (1977) и «Космическая одиссея 2001» (1968) за изображение космоса, и «Техасская резня бензопилой» (1974) за атмосферу страха.
* Упомянутая в фильме звездная система Zeta-2 Reticuli реально существует. Это двойная звезда, на расстоянии 39 световых лет от Земли.
Свернуть
Награды и номинации
Включён в 2002 году в Национальный регистр фильмов.

 Сатурн, 2004 год
Номинации:
  • Лучшая DVD-коллекция — «For the Alien Quadrilogy»

 Оскар, 1980 год
Победитель:
  • Лучшие визуальные эффекты
Номинации:
  • Лучшие декорации

 Золотой глобус, 1980 год
Номинации:
  • Лучший саундтрек

 Британская академия, 1980 год
Победитель:
  • Лучший саундтрек
  • Лучшая работа художника-постановщика
Номинации:
  • Лучшая мужская роль второго плана (Джон Хёрт)
  • Лучшие костюмы
  • Лучший монтаж
  • Самый многообещающий новичок (Сигурни Уивер)
  • Премия имени Энтони Эскуита за достижения в создании музыки к фильму

 Сатурн, 1980 год
Победитель:
  • Лучшая актриса второго плана (Вероника Картрайт)
  • Лучший режиссер (Ридли Скотт)
  • Лучший научно-фантастический фильм
Номинации:
  • Лучшая актриса (Сигурни Уивер)
  • Лучший сценарий
  • Лучшие спецэффекты
  • Лучший грим

 Сан-Себастьян, 1979 год
Победитель:
  • Серебряная раковина за лучшую работу оператора и спецэффекты
Свернуть
MediaInfo
Video
ID : 1
Format : AVC
Format/Info : Advanced Video Codec
Format profile : High@L4.1
Format settings, CABAC : Yes
Format settings, ReFrames : 4 frames
Codec ID : V_MPEG4/ISO/AVC
Duration : 1h 56mn
Bit rate mode : Variable
Bit rate : 26.3 Mbps
Maximum bit rate : 34.7 Mbps
Width : 1 920 pixels
Height : 1 080 pixels
Display aspect ratio : 16:9
Frame rate : 23.976 fps
Color space : YUV
Chroma subsampling : 4:2:0
Bit depth : 8 bits
Scan type : Progressive
Bits/(Pixel*Frame) : 0.528
Stream size : 21.3 GiB (68%)
Color primaries : BT.709-5, BT.1361, IEC 61966-2-4, SMPTE RP177
Transfer characteristics : BT.709-5, BT.1361
Matrix coefficients : BT.709-5, BT.1361, IEC 61966-2-4 709, SMPTE RP177

Audio #1
ID : 2
Format : DTS
Format/Info : Digital Theater Systems
Codec ID : A_DTS
Duration : 1h 56mn
Bit rate mode : Constant
Bit rate : 755 Kbps
Channel(s) : 6 channels
Channel positions : Front: L C R, Side: L R, LFE
Sampling rate : 48.0 KHz
Bit depth : 24 bits
Compression mode : Lossy
Stream size : 627 MiB (2%)
Title : Дубляж
Language : Russian

Audio #2
ID : 3
Format : AC-3
Format/Info : Audio Coding 3
Mode extension : CM (complete main)
Codec ID : A_AC3
Duration : 1h 56mn
Bit rate mode : Constant
Bit rate : 448 Kbps
Channel(s) : 6 channels
Channel positions : Front: L C R, Side: L R, LFE
Sampling rate : 48.0 KHz
Bit depth : 16 bits
Compression mode : Lossy
Stream size : 373 MiB (1%)
Title : Профессиональный многоголосый (Киномания)
Language : Russian

Audio #3
ID : 4
Format : AC-3
Format/Info : Audio Coding 3
Mode extension : CM (complete main)
Codec ID : A_AC3
Duration : 1h 56mn
Bit rate mode : Constant
Bit rate : 192 Kbps
Channel(s) : 2 channels
Channel positions : Front: L R
Sampling rate : 48.0 KHz
Bit depth : 16 bits
Compression mode : Lossy
Stream size : 160 MiB (0%)
Title : Профессиональный многоголосый (Первый канал)
Language : Russian

Audio #4
ID : 5
Format : AC-3
Format/Info : Audio Coding 3
Mode extension : CM (complete main)
Codec ID : A_AC3
Duration : 1h 56mn
Bit rate mode : Constant
Bit rate : 448 Kbps
Channel(s) : 6 channels
Channel positions : Front: L C R, Side: L R, LFE
Sampling rate : 48.0 KHz
Bit depth : 16 bits
Compression mode : Lossy
Stream size : 373 MiB (1%)
Title : Профессиональный многоголосый (Позитив-Мультимедиа)
Language : Russian

Audio #5
ID : 6
Format : DTS
Format/Info : Digital Theater Systems
Codec ID : A_DTS
Duration : 1h 56mn
Bit rate mode : Constant
Bit rate : 755 Kbps
Channel(s) : 6 channels
Channel positions : Front: L C R, Side: L R, LFE
Sampling rate : 48.0 KHz
Bit depth : 24 bits
Compression mode : Lossy
Stream size : 627 MiB (2%)
Title : Профессиональный многоголосый (Супербит)
Language : Russian

Audio #6
ID : 7
Format : DTS
Format/Info : Digital Theater Systems
Codec ID : A_DTS
Duration : 1h 56mn
Bit rate mode : Constant
Bit rate : 1 510 Kbps
Channel(s) : 6 channels
Channel positions : Front: L C R, Side: L R, LFE
Sampling rate : 48.0 KHz
Bit depth : 24 bits
Compression mode : Lossy
Stream size : 1.23 GiB (4%)
Title : Профессиональный многоголосый (LDV)
Language : Russian

Audio #7
ID : 8
Format : AC-3
Format/Info : Audio Coding 3
Mode extension : CM (complete main)
Codec ID : A_AC3
Duration : 1h 56mn
Bit rate mode : Constant
Bit rate : 384 Kbps
Channel(s) : 6 channels
Channel positions : Front: L C R, Side: L R, LFE
Sampling rate : 48.0 KHz
Bit depth : 16 bits
Compression mode : Lossy
Stream size : 319 MiB (1%)
Title : Профессиональный многоголосый (1+1)
Language : Ukrainian

Audio #8
ID : 9
Format : DTS
Format/Info : Digital Theater Systems
Codec ID : A_DTS
Duration : 1h 56mn
Bit rate mode : Constant
Bit rate : 1 510 Kbps
Channel(s) : 6 channels
Channel positions : Front: L C R, Side: L R, LFE
Sampling rate : 48.0 KHz
Bit depth : 24 bits
Compression mode : Lossy
Stream size : 1.23 GiB (4%)
Title : Авторский одноголосый (Гаврилов)
Language : Russian

Audio #9
ID : 10
Format : DTS
Format/Info : Digital Theater Systems
Codec ID : A_DTS
Duration : 1h 56mn
Bit rate mode : Constant
Bit rate : 1 510 Kbps
Channel(s) : 6 channels
Channel positions : Front: L C R, Side: L R, LFE
Sampling rate : 48.0 KHz
Bit depth : 24 bits
Compression mode : Lossy
Stream size : 1.23 GiB (4%)
Title : Авторский одноголосый (Гоблин)
Language : Russian

Audio #10
ID : 11
Format : DTS
Format/Info : Digital Theater Systems
Codec ID : A_DTS
Duration : 1h 56mn
Bit rate mode : Constant
Bit rate : 1 510 Kbps
Channel(s) : 6 channels
Channel positions : Front: L C R, Side: L R, LFE
Sampling rate : 48.0 KHz
Bit depth : 24 bits
Compression mode : Lossy
Stream size : 1.23 GiB (4%)
Title : Авторский одноголосый (Живов)
Language : Russian

Audio #11
ID : 12
Format : AC-3
Format/Info : Audio Coding 3
Mode extension : CM (complete main)
Codec ID : A_AC3
Duration : 1h 56mn
Bit rate mode : Constant
Bit rate : 224 Kbps
Channel(s) : 2 channels
Channel positions : Front: L R
Sampling rate : 48.0 KHz
Bit depth : 16 bits
Compression mode : Lossy
Stream size : 186 MiB (1%)
Title : Комментарии 1
Language : English

Audio #12
ID : 13
Format : AC-3
Format/Info : Audio Coding 3
Mode extension : CM (complete main)
Codec ID : A_AC3
Duration : 1h 56mn
Bit rate mode : Constant
Bit rate : 224 Kbps
Channel(s) : 2 channels
Channel positions : Front: L R
Sampling rate : 48.0 KHz
Bit depth : 16 bits
Compression mode : Lossy
Stream size : 186 MiB (1%)
Title : Комментарии 2
Language : English

Audio #13
ID : 14
Format : DTS
Format/Info : Digital Theater Systems
Format profile : MA / Core
Codec ID : A_DTS
Duration : 1h 56mn
Bit rate mode : Variable
Bit rate : 2 224 Kbps / 1 510 Kbps
Channel(s) : 6 channels
Channel positions : Front: L C R, Side: L R, LFE
Sampling rate : 48.0 KHz
Bit depth : 24 bits
Compression mode : Lossless / Lossy
Title : Оригинал
Language : English

Text #1
ID : 15
Format : PGS
Codec ID : S_HDMV/PGS
Codec ID/Info : The same subtitle format used on BDs/HD-DVDs
Title : Full
Language : English

Text #2
ID : 16
Format : PGS
Codec ID : S_HDMV/PGS
Codec ID/Info : The same subtitle format used on BDs/HD-DVDs
Title : Full
Language : Russian

Text #3
ID : 17
Format : PGS
Codec ID : S_HDMV/PGS
Codec ID/Info : The same subtitle format used on BDs/HD-DVDs
Title : Full
Language : Ukrainian

Text #4
ID : 18
Format : PGS
Codec ID : S_HDMV/PGS
Codec ID/Info : The same subtitle format used on BDs/HD-DVDs
Title : Commentary 1
Language : Russian

Text #5
ID : 19
Format : PGS
Codec ID : S_HDMV/PGS
Codec ID/Info : The same subtitle format used on BDs/HD-DVDs
Title : Commentary 2
Language : Russian

Text #6
ID : 20
Format : UTF-8
Codec ID : S_TEXT/UTF8
Codec ID/Info : UTF-8 Plain Text
Title : Extended (Goblin)
Language : Russian
Свернуть


Качество: BD-Remux
Формат: MKV
Видео: 1920x1080 at 23.976 fps, AVC, ~26300 kbps avg
Аудио #1: Russian DTS / 5.1 / 48 kHz / 755 kbps [Дубляж]
Аудио #2: Russian AC3 / 5.1 / 48 kHz / 448 kbps [Киномания]
Аудио #3: Russian AC3 / 2.0 / 48 kHz / 192 kbps [Первый канал]
Аудио #4: Russian AC3 / 5.1 / 48 kHz / 448 kbps [Позитив-Мультимедиа]
Аудио #5: Russian DTS / 5.1 / 48 kHz / 755 kbps [Супербит]
Аудио #6: Russian DTS / 5.1 / 48 kHz / 1510 kbps [LDV]
Аудио #7: Ukrainian AC3 / 5.1 / 48 kHz / 384 kbps [1+1]
Аудио #8: Russian DTS / 5.1 / 48 kHz / 1510 kbps [Гаврилов]
Аудио #9: Russian DTS / 5.1 / 48 kHz / 1510 kbps [Пучков aka "Гоблин"]
Аудио #10: Russian DTS / 5.1 / 48 kHz / 1510 kbps [Живов]
Аудио #11: English AC3 / 2.0 / 48 kHz / 224 kbps [Комментарии 1]
Аудио #12: English AC3 / 2.0 / 48 kHz / 224 kbps [Комментарии 2]
Аудио #13: English DTS-HD Master Audio / 7.1 / 48 kHz / 2224 kbps / 24-bit (DTS Core: 5.1 / 48 kHz / 1510 kbps / 24-bit) [Оригинал]

Скриншоты

Изображение

Изображение

Изображение

Свернуть
Свернуть
Чужие / Aliens (1986)
Чужие / Aliens


«В некоторых местах Вселенной вы не одиноки...»

Изображение
Год выпуска: 1986
Страна: США, Великобритания
Жанр: фантастика, боевик, триллер, приключения
Продолжительность: 02:34:26
Перевод: Профессиональный (полное дублирование) + Многоголосый, закадровый (Киномания) + Многоголосый, закадровый (Первый канал) + Многоголосый, закадровый (Позитив-Мультимедиа) + Многоголосый, закадровый (Супербит) + Многоголосый, закадровый (LDV) + Многоголосый, закадровый (1+1) + Авторский, одноголосый (Гаврилов) + Авторский, одноголосый (Пучков aka "Гоблин") + Авторский, одноголосый (Горчаков) + + Авторский, одноголосый (Кашкин) + Авторский, одноголосый (Марченко) + Авторский, одноголосый (Михалев) + Оригинал + Комментарии + Субтитры (English (Full), Russian (Full), Ukrainian (Full), Russian (Commentary))

Режиссер: Джеймс Кэмерон
Сценарий: Джеймс Кэмерон, Дэвид Гайлер, Уолтер Хилл
Продюсер: Гэйл Энн Херд, Гордон Кэрролл, Дэвид Гайлер
Оператор: Эдриан Биддл
Композитор: Джеймс Хорнер

В ролях: Сигурни Уивер, Майкл Бьен, Кэрри Хенн, Пол Райзер, Лэнс Хенриксен, Билл Пэкстон, Дженетт Голдстин, Уильям Хоуп, Эл Мэтьюз, Марк Ролстон

Описание: Чужой — совершенный организм. Идеальная машина для убийства, чье физическое превосходство сочетается с его феноменальной жаждой уничтожения. Офицер Элен Рипли и команда космического корабля Ностромо один раз уже встретилась с такой тварью. В живых осталась только Элен.
Капсула с Элен найдена спасателями после многих лет блуждания в космосе. Ей сообщают, что планета L.V. 426 колонизирована, и ей придется вернуться туда, где начался ее кошмар, ибо связь с колонистами прервалась. И вот в составе группы космического десанта Рипли отправляется на проклятую планету. Но теперь их там поджидает не один Чужой, а тысячи. Кто сможет выжить в этой войне: чудовища, способные только убивать, или люди, способные мыслить?


kinopoisk.ru: 8.038 (35437)

Доп. информация
Бюджет: $18 500 000
Сборы в мире: $131 060 248
Премьера (мир): 18 июля 1986
Рейтинг R — Restricted. Подростки до 17 лет допускаются на фильм только в сопровождении одного из родителей
Изображение
Ограничение — до 17 лет требуется сопровождение родителя или взрослого опекуна (возраст может меняться в некоторых регионах). Данный рейтинг показывает, что оценочная комиссия заключила, что некоторый материал оценённого фильма предназначается для взрослых. Родители должны больше узнать о фильме прежде, чем взять на его просмотр детей. Рейтинг R также может быть назначен из-за используемого в фильме языка, темы, насилия, секса или изображения употребления наркотиков.
Свернуть
Свернуть
Знаете ли вы, что...
* Джеймс Римар должен был сыграть Хикса, но был заменен на Майкла Бьена спустя несколько дней после начала съёмок. Официальная причина — творческие разногласия с режиссером фильма, Джеймсом Кэмероном.
* Оператор Дик Буш выбыл из проекта из-за творческих разногласий с Джеймсом Кэмероном и Гэйл Энн Хёрд (продюсер фильма)
* Декорация гнезда чужих была сохранена после завершения съёмок. Впоследствии она была использована как декорация завода «Axis Chemicals» в «Бэтмане» (1989).
* Сценарная заявка на фильм была завершена 21 сентября 1983 года и называлась «Чужой 2». Вот некоторые различия между сценарной заявкой и законченным фильмом:
1) Персонаж Картера Бёрка (Пол Райзер) отсутствовал, его диалоги были отданы некому доктору О'Нилу, который не полетел вместе с Рипли и морскими пехотинцами на планету колонистов.
2) Рипли была отправлена не на станцию «Gateway Station», а на «Околоземную станцию Бета» (Earth Station Beta).
3) Планета колонистов называлась «Ахерон» вместо «LV-426». Данное название планеты было взято из сценария к «Чужому» (1979).
4) Дочь Рипли была жива. Также в сценарной заявке присутствовала сцена разговора по видеотелефону между Рипли и её дочерью, в которой дочь обвиняла мать в том, что она её бросила, улетев в космос.
5) На планете колонистов существовало несколько атмосферных установок.
6) По ходу фильма из Рипли, Ньют и Хикса делают коконы.
7) Чужие, которые делают из людей коконы — другая порода. Они выглядят как уменьшенные альбинос-версии чужих-войнов.
8) Бишоп отказывался посадить шатл и подобрать Рипли, Хикса и Ньют. Он объясняет это тем, что риск заражения других населенных планет крайне высок. Рипли использует один из шатлов колонистов, для того чтобы вернуться на «Сулако». Бишоп говорит ей — «ты была права на счет меня».
* Первый вариант сценария был закончен 30 мая 1985 года. Он довольно сильно отличается от сценарной заявки и намного ближе к окончательной версии сценария. Однако, в нем можно найти ряд отличий от окончательной версии:
1) Рипли дает морским пехотинцам более подробный инструктаж о чужих.
2) Около тридцати установок для выработки атмосферы установлено на планете колонистов. В окончательной версии была всего одна установка.
3) Ньют предлагает Рипли удочерить её.
4) Когда Бишоп ползет по туннелю, он сталкивается с чужим.
5) В первом варианте сценария присутствует сцена, в которой Рипли, спасая Ньют, случайно сталкивается с Картером Бёрком (Пол Райзер), из которого сделали кокон. Он просит Рипли о помощи. В ответ она дает ему гранату. Данная сцена была снята, но не вошла ни в театральную, ни в режиссерскую версии.
* Одна из самых сложных сцен фильма — морские пехотинцы входят в гнездо чужих — была снята, до того как Джеймс Римар был заменен Майклом Бьеном. Переснимать данную сцену было бы слишком дорого, поэтому зрители могут видеть только спину капрала Хикса, которого в данной сцене сыграл Римар.
* Съёмки фильма проходили в Англии, поэтому режиссер и продюсеры решили занять в своем фильме американских актеров, которые проживали в Англии. Кэрри Хэнн, которая сыграла Ньют, по происхождению американка, но жила в Англии. В фильме брата Ньют зовут Тимми, в реальной жизни это — родной брат Кэрри, которого зовут Кристофер Хэнн.
* Композитор фильма, Джеймс Хорнер, признался, что Джеймс Кэмерон дал ему настолько мало времени для написания музыки к фильму, что он был вынужден использовать некоторые части из своих предыдущих композиций, а также написать свою интерпретацию «Gayane Ballet Suite» для начальных и финальных титров. Хорнер утверждает, что во время пост-продакшна он решил, что никогда больше не будет работать с Кэмероном. Однако, Кэмерон был настолько восхищен музыкой Хорнера к «Храброму сердцу» (1995), что предложил ему написать музыку к «Титанику» (1997). Хорнер согласился.
* Переговоры между Сигурни Уивер и студией по поводу участия в фильме последней шли крайне напряженно. В то же самое время Джеймс Кэмерон и Гэйл Энн Херд поженились. Они объявили, что если договоренность между студией и Сигурни не будет достигнута до того, как они вернуться со своего медового месяца, то они покинут проект. Когда они вернулись, соглашение не было достигнуто. Кэмерон страстно желал снять этот фильм, поэтому он разработал хитрую схему, как заманить Уивер в продолжении «Чужого» (1979). Кэмерон позвонил агенту Арнольда Шварценеггера и, как бы, между делом сказал, что он разрабатывает альтернативный сценарий к «Чужим», в котором будет полностью отсутствовать героиня Сигурни Уивер. Как и надеялся Кэмерон, агент немедленно позвонил своему коллеге, представляющему интересы Уивер, который в свою очередь немедленно связался с главой производственного отдела «20 Век Фокс», Лоренсом Горденом. Обе стороны справедливо решили, что продолжение возможно только с участием Уивер, и без лишних проволочек подписали контракт.
* Актеры, игравшие морских пехотинцев, прошли специальные тренировки под руководством настоящих морских пехотинцев. Тренировки длились как минимум две недели. Майкл Бьен не проходил тренировки, так как заменил Джеймса Римара спустя неделю после начала съёмок. Сигурни Уивер, Пол Райзер и Уильям Хоуп не проходили тренировок, так как Джеймс Кэмерон решил, что это поможет создать разделение между данной троицей и морскими пехотинцами. Эти три актера сыграли персонажей никак не связанные с отделением. Рипли была консультантом при полете на «LV-426»; Бёрк представлял финансовые интересы Компании; лейтенанта Гормана только что назначили командующим отделения, к тому же у него было намного меньше боевого опыта, чем у остального личного состава.
* Кроме тренировок, чтение романа Роберта Хайнлайна «Звездный десант» входило в обязательную подготовку актеров, сыгравших морских пехотинцев.
* Ни одна из моделей «Нарцисса», шатла «Ностромо», из «Чужого» (1979) не сохранилась. Для того чтобы воссоздать модель корабля и внутренние помещения, декораторам и команде по спецэффектам пришлось неоднократно пересмотреть «Чужого» (1979).
* Специальное издание фильма включает в себя ряд дополнительных сцен. Вот некоторые из них:
1) Родители Ньют находят инопланетный корабль на «LV-426».
2) Сцены, в которых Рипли обсуждает свою дочь.
3) Хадсон хвастается на счет своего вооружения.
4) Роботы-часовые отражают первую атаку чужих.
5) Хикс и Рипли говорят друг другу свои имена
* Эл Мэттьюс, сыгравший сержанта, в реальной жизни был первым черным морским пехотинцем во Вьетнаме, которого повысили в звании до сержанта.
* В обеих версиях, театральной и режиссерской, финальный пятнадцати минутный отчет времени на самом деле продолжается… ровно пятнадцать минут.
* В удаленной сцене, Элизабет Ингис сыграла дочь Рипли. В реальности, Элизабет — мать Сигурни Уивер.
* Сигурни Уивер попросила Джеймса Кэмерона, чтобы её героиня в фильме сделала три вещи: не носила оружия; умерла; и занималась любовью с чужим. Несмотря на то, что ни одно из этих пожеланий не было выполнено, героиня Сигурни Уивер сделала всё это в последующих фильмах о чужих.
* Во время переговоров о гонораре с Сигурни Уивер, студия попросила Джеймса Кэмерона написать альтернативный вариант сценария, в котором не было бы Рипли. Кэмерон отказался, заявив, что он не видит продолжения без Рипли.
* Студия вела переговоры с Эйч. Р. Гигером о том, чтобы он создал новые декорации и модели чужих, но Джеймс Кэмерон выступил против такого решения. Единственной новой моделью в фильме была Королева чужих, дизайн которой к тому времени разработал сам Кэмерон.
* В одной из сцен Бишоп говорит: «Я не могу причинить вред или допустить какое-либо действие, направленное на причинение вреда, человеку». Тем самым он повторяет первый закон робототехники, сформулированный Айзеком Азимовым.
* Как и большинство фильмов, «Чужие» снимались не последовательно. Но для большего реализма, Джеймс Кэмерон снял сцену первого появления в кадре морских пехотинцев одной из последних. Так как актеры провели несколько месяцев вместе, Кэмерон тем самым постарался показать дух товарищества среди морских пехотинцев.
* Для большего реализма Джеймс Кэмерон попросил актеров, игравших морских пехотинцев, добавить какие-нибудь личные детали для своей амуниции. Подобным образом поступало большинство солдат во Вьетнаме, расписывая свои каски и амуницию. Так, например, на шлеме капрала Дитрих (Синтия Дэйл Скотт) написано «Blue Angel». Марлен Дитрих исполнила главную роль в «Голубом ангеле» (Der Blaue Engel). «Blue Angel» — английское название фильма. На бронежилете рядового Хадсона (Билл Пэкстон) написано «Луиза». В реальной жизни жену Билла Пэкстона зовут Луиза Ньюбери.
* В сцене, где Васкез стреляет в чужого из дробовика, Джанет Голдстаин не могла справиться с отдачей от оружия. В результате, в сценах стрельбы Гэйл Энн Херд (продюсер фильма) подменяла Джанет. Гэйл была единственной женщиной на съёмочной площадке, которая до этого стреляла из такого вида оружия.
* При съёмках использовалось три разных вида дыма, впоследствии один из которых был запрещен для применения при съёмках фильмов.
* Музыка, играющая в сцене, где Рипли и Ньют ожидают лифт, и появляется Королева чужих, — часть композиции Джерри Голдсмита, которую он написал для «Чужого» (1979).
* Название компании — «Вэйланд Ютани» (Weyland Yutani) — было составлено из имен бывших соседей Ридли Скотта, которых он страшно ненавидел.
* Из-за бюджетных ограничений, несколько зеркал было использовано в первой сцене на борту «Сулако», для того чтобы показать большее количество установок для криогенного сна, чем их было на самом деле.
* Город, в котором живут колонисты, называется «Надежда Хадли» (Hadley's Hope).
* В сцене, в которой Бёрк и Рипли обсуждают психическое состояние последней, на столе можно заметить журнал «People».
* По версии «Intertainment Weekly» фильм занял 42 место в списке «Величайших фильмов всех времен». Фильм был охарактеризован, как «лучший фильм в жанре экшн всех времен».
* При монтаже фильма одна из начальных сцен, в которой речь идет о жизни колонистов на «LV-426», была удалена. Но некоторые элементы этой сцены можно встретить в последующих работах Джеймса Кэмерона. Так, например, фраза «…и они всегда отвечают одно и тоже — не спрашивай» была использована в «Терминаторе 2: Судный день» (1991). Имя одного из персонажей Лэйдекер использовалось в «Темном ангеле» (Dark Angel) (2000).
* Сигурни Уивер не горела желанием вновь исполнить роль Рипли. Она отвергла множество предложений со стороны студии «20 Век Фокс», так как её не устраивала ни одна из предложенных концепций сиквела. Однако, после того как она прочитала сценарий Джеймса Кэмерона, уделившего немало времени на проработку её героини, а также на отношения матери-дочери между Рипли и Ньют, Уивер дала свое согласие на участие в фильме.
* Уже после того, как Джеймс Кэмерон был утвержден для написания сценария, продюсеры согласились не отдавать проект в чужие руки и подождать, пока Кэмерон снимет «Терминатора» (1984). Студия пошла на такие уступки, т.к. ей уж очень сильно понравилась его сценарная заявка.
* Для съёмок экшн-сцен в логове чужих была использована электростанция, которая была закрыта незадолго до начала работы над фильмом.
* Бронетранспортер был построен на основе буксира для самолетов, купленного у аэропорта Heathrow. Создателям фильма пришлось немало попотеть, чтобы уменьшить стандартную массу машины c 75 до 30 тонн
* Одна из дизайнерских компаний предлагала Кэмерону свои услуги по разработке внешнего вида бронетранспортера, однако, из-за бюджетных ограничений продюсерам картины пришлось отказаться от услуг данной компании.
* Для декорации ванной комнаты Рипли в её квартире был использован туалет в самолетах компании «British Airways».
* Требовалась 14-16 человек, для того чтобы заставить двигаться модель Королевы чужих.
* Дженетт Голдстин не правильно поняла содержание картины и пришла на пробы, одетая как ирландский эмигрант 19 века. Она всё-таки получила роль в фильме, но другие актеры постоянно подшучивали по поводу её наряда на пробах. В итоге, Джеймсу Кэмерону пришлось добавить несколько подобных шуток в сценарий в качестве словесных перепалок между Васкез и Хадсоном (Билл Пэкстон). О необычных пробах Дженет не забыли даже на съёмках «Титаника» (1997). Правда, в этом фильме Кэмерона она наконец-таки сыграла ирландскую эмигрантку.
* Лэнс Хенриксен хотел надеть специальные контактные линзы, создававшие эффект двух зрачков в одном глазе, для сцены, где он работает в лаборатории и бросает довольно жуткий взгляд на одного из морских пехотинцев. Лэнс явился на съёмочную площадку в таких линзах, но Джеймс Кэмерон уговорил его отказаться от данной идеи, заверив его, что даже без линз взгляд у него более чем зловещий.
* Звуковые эффекты, использованные для открывающихся / закрывающихся дверей, идентичны звуковым эффектам для автоматических дверей в фильме «The Prisoner» (1967).
* Звук звонка видеотелефона в сцене между Рипли и Берком точно такой же, как и у телефонов в «The Prisoner» (1967).
* Специальный механизм, с помощью которого фэйсхаггеры двигались в колбах, также применялся в более раннем фильме Джеймса Кэмерона «Пираньи 2: Нерест» (1981). Потребовалось 9 человек, чтобы оживить фэйсхаггера: по одному человеку для каждой ноги и один для управления хвостом.
* Для съёмок фильма было использовано всего лишь шесть костюмов чужих.
* Поясные крепления для смарт ганов Васкез и Дрейка были взяты от камеры Steadicam.
* Импульсные винтовки (М41А) морских пехотинцев были разработаны на основе пулемета Thompson M1A1, а подствольный гранатомет – на основе дробовика Franchi SPAS 12.
* Смарт Ганы (M-56) морских пехотинцев и вооружение «стражников» были сконструированы на основе немецкого пулемета MG 42.
* Шлемы, которые носят морские пехотинцы, - это модифицированная версия баллистического шлема М-1.
* Для съёмок сцены, в которой Рипли, держа на руках Ньют, убегает от Королевы чужих, команды по спецэффектам сделала специальную, в натуральную величину куклу Ньют.
* Бишоп делает такой же трюк с ножом, как и Бойлер в «Темной звезде» (1974) Джона Карпентера. Схожий трюк можно увидеть в фильмах «Нож в воде» (1962) и «Чужой против Хищника» (2004).
* В книге Джозефа Конрада «Ностромо» один из городов называется Сулако.
* На бронежилете Васкез можно заметить надпись «El riesgo vive siempre!», что при дословном переводе с испанского означает: «Всегда выживает тот, кто не боится рисковать!»
* Сразу несколько человек занимались разработкой внешнего вида челнока, доставляющего морских пехотинцев с «Сулако» на планету колонистов, но Кэмерону не понравилась ни одна из предложенных моделей. В конце концов, Джим сам разработал дизайн челнока, показанного в фильме.
* Если внимательно присмотреться к новорожденному чужому, вылезающему из груди одного из колонистов, то у него можно заметить небольшие руки. В первом фильме, по настоянию Ридли Скотта, маленького чужого «лишили» рук.
* В настоящее время одно из яиц фэйсхаггера находится в «Смитсоновском институте» в Вашингтоне.
* У Королевы чужих – прозрачные зубы в отличие от чужих-воинов.
* Увидев театральную версию картины, Сигурни Уивер грозилась больше никогда не сниматься в фильмах о чужих. В качестве компромисса в 1987 было выпущено специальное издание на Laser-Disc.
* Личные номера морских пехотинцев:
Сержант Апоне, A A19/TQ4.0.32751E8
Рядовой Кроу, T A46/TQ1.0.98712E6
Капрал Дитрих, C A41/TQ8.0.81120E2
Рядовой Дрейк, M A23/TQ2.0.47619E7
Капрал Ферро, C A71/TQ9.0.09428E1
Рядовой Фрост, R A17/TQ4.0.61247E5
Лейтенант Горман, S A09/TQ4.0.56124E3
Капрал Хикс, D A27/TQ4.0.48215E9
Рядовой Хадсон, W A08/TQ1.0.41776E3
Рядовой Спанкмайер, D A23/TQ6.0.92810E7
Рядовой Васкез, J A03/TQ7.0.15618E4
Рядовой Вирзбовски, T A14/TQ8.0.20034E7
* В сцене, где команда Сулако просыпается после гиперсна, на экране монитора можно заметить список всех членов экипажа. Примечательно, что после фамилии того или иного героя идет первая буква имени актера, его сыгравшего, за исключением «Хикса, Д», «Рипли, Э.» и «Гормана, С.»
* После того, как Дэвид Гилер и Уолтер Хилл прочитали сценарий Кэмерона к «Терминатору» (1984), они точно решили сделать с ним совместный фильм. На встрече с Гилером и Хиллом Кэмерон предложил несколько идей для будущих проектов, но ни одна из них не заинтересовала продюсеров. Когда встреча уже подходила к концу Гилер и Хилл как бы между делом упомянули о том, что собираются сделать продолжение «Чужого» (1979). Кэмерон сразу же заинтересовался проектом, и написал 40-50 страничную сценарную заявку, которая во многом была основана на его же сценарии «Мать» (Mother). Продюсерам пришлось по душе кэмероновское видение сиквела, и они подписали контракт с Джимом. В тот же самый день Кэмерон подписал контракт на написание сценария к «Рэмбо 2» (1985).
* На самом начальном этапе съёмок фильма съёмочная группа относилась довольно враждебно к Джеймсу Кэмерону, не понимая, почему на постановку «Чужих» был выбран никому неизвестный режиссер (на тот момент «Терминатор» (1984) еще не вышел в британский прокат). Гэйл Энн Херд даже пришлось уволить ассистента режиссера.
* Несмотря на номинацию на «Оскар», Джеймс Хорнер был крайне не доволен тем, как обошлись с его музыкой. Дело в том, что готовый саундтрек не совсем подходил для финального монтажа картины. Так как во время монтажа Хорнер работал на другом проекте, Джеймс Кэмерон самостоятельно «порезал» музыку.
* Майклу Бьену позвонили в пятницу, предложив роль Хикса. Уже в следующий понедельник он приступил к съёмкам.
* Специальная смесь из молока и йогурта была использована в качестве «крови» андроида Бишопа.
* Жесткое расписание Джеймса Хорнера позволяла ему выделить для работы над фильмом не более шести недель. Прибыв в Лондон, он узнал, что съёмки картины еще не завершены, а монтаж только начался. Ему пришлось прождать три недели, прежде чем приступить к написанию музыки для фильма.
* В первом варианте сценария Бишоп особо подчеркивал, что андроид Эш из «Чужого» (1979) мог быть неисправен, т.к. являлся старой моделью, Cyberdyne Systems 120-A/2. Cyberdyne Systems – название компании из «Терминатора» (1984).
* До того как их призвали на военную службу, Васкез и Дрейк отбывали срок в одной и той же тюрьме для несовершеннолетних. Об этом не упоминается в фильме, но сказано в сценарии.
* Лэнс Хенриксен предложил, чтобы в сцене с ножом его рука лежала поверх руки Билла Пэкстона.
* На смарт гане Дрейка написано «моя сука» («my bitch)».
* На смарт гане Васкез написано «Adios».
* После выхода фильма компания Caterpillar (CAT), которая занимается производством тяжёлого строительного оборудования, получила несколько запросов от людей, заинтересованных в приобретении шагающего погрузчика-экзоскелета CAT (сокращенно от Caterpillar), с помощью которого Элен Рипли борется с самкой чужого в финальной сцене фильма. В свою очередь, компании Caterpillar пришлось объяснять, что это оборудование существует только в фантастическом фильме.
* Режиссёрская версия фильма имеет хронометраж 154 минуты.
* Сулако - это вымышленный город из романа «Ностромо» Дж. Конрада.
Свернуть
Награды и номинации
 Оскар, 1987 год
Победитель:
  • Лучший монтаж звука
  • Лучшие визуальные эффекты
Номинации:
  • Лучшая женская роль (Сигурни Уивер)
  • Лучшие декорации
  • Лучший звук
  • Лучший монтаж
  • Лучший оригинальный саундтрек

 Золотой глобус, 1987 год
Номинации:
  • Лучшая женская роль (драма) (Сигурни Уивер)

 Британская академия, 1987 год
Победитель:
  • Лучшие визуальные эффекты
Номинации:
  • Лучший звук
  • Лучший грим
  • Лучшая работа художника-постановщика

 Сатурн, 1987 год
Победитель:
  • Лучший молодой актер/актриса (Кэрри Хенн)
  • Лучшая актриса (Сигурни Уивер)
  • Лучший актер второго плана (Билл Пэкстон)
  • Лучшая актриса второго плана (Дженетт Голдстин)
  • Лучший режиссер (Джеймс Кэмерон)
  • Лучший сценарий
  • Лучшие спецэффекты
  • Лучший научно-фантастический фильм
Номинации:
  • Лучший актер (Майкл Бьен)
  • Лучшие костюмы
  • Лучший грим
Свернуть
MediaInfo
Video
ID : 1
Format : AVC
Format/Info : Advanced Video Codec
Format profile : High@L4.1
Format settings, CABAC : Yes
Format settings, ReFrames : 4 frames
Format settings, GOP : M=1, N=24
Codec ID : V_MPEG4/ISO/AVC
Duration : 2h 34mn
Bit rate mode : Variable
Bit rate : 28.0 Mbps
Maximum bit rate : 36.6 Mbps
Width : 1 920 pixels
Height : 1 080 pixels
Display aspect ratio : 16:9
Frame rate : 23.976 fps
Color space : YUV
Chroma subsampling : 4:2:0
Bit depth : 8 bits
Scan type : Progressive
Bits/(Pixel*Frame) : 0.564
Stream size : 30.2 GiB (66%)
Color primaries : BT.709-5, BT.1361, IEC 61966-2-4, SMPTE RP177
Transfer characteristics : BT.709-5, BT.1361
Matrix coefficients : BT.709-5, BT.1361, IEC 61966-2-4 709, SMPTE RP177

Audio #1
ID : 2
Format : DTS
Format/Info : Digital Theater Systems
Codec ID : A_DTS
Duration : 2h 34mn
Bit rate mode : Constant
Bit rate : 755 Kbps
Channel(s) : 6 channels
Channel positions : Front: L C R, Side: L R, LFE
Sampling rate : 48.0 KHz
Bit depth : 24 bits
Compression mode : Lossy
Stream size : 834 MiB (2%)
Title : Дубляж
Language : Russian

Audio #2
ID : 3
Format : AC-3
Format/Info : Audio Coding 3
Mode extension : CM (complete main)
Codec ID : A_AC3
Duration : 2h 34mn
Bit rate mode : Constant
Bit rate : 448 Kbps
Channel(s) : 6 channels
Channel positions : Front: L C R, Side: L R, LFE
Sampling rate : 48.0 KHz
Bit depth : 16 bits
Compression mode : Lossy
Stream size : 495 MiB (1%)
Title : Профессиональный многоголосый (Киномания)
Language : Russian

Audio #3
ID : 4
Format : AC-3
Format/Info : Audio Coding 3
Mode extension : CM (complete main)
Codec ID : A_AC3
Duration : 2h 34mn
Bit rate mode : Constant
Bit rate : 448 Kbps
Channel(s) : 6 channels
Channel positions : Front: L C R, Side: L R, LFE
Sampling rate : 48.0 KHz
Bit depth : 16 bits
Compression mode : Lossy
Stream size : 495 MiB (1%)
Title : Профессиональный многоголосый (Первый канал)
Language : Russian

Audio #4
ID : 5
Format : AC-3
Format/Info : Audio Coding 3
Mode extension : CM (complete main)
Codec ID : A_AC3
Duration : 2h 34mn
Bit rate mode : Constant
Bit rate : 448 Kbps
Channel(s) : 6 channels
Channel positions : Front: L C R, Side: L R, LFE
Sampling rate : 48.0 KHz
Bit depth : 16 bits
Compression mode : Lossy
Stream size : 495 MiB (1%)
Title : Профессиональный многоголосый (Позитив-Мультимедиа)
Language : Russian

Audio #5
ID : 6
Format : DTS
Format/Info : Digital Theater Systems
Codec ID : A_DTS
Duration : 2h 34mn
Bit rate mode : Constant
Bit rate : 755 Kbps
Channel(s) : 6 channels
Channel positions : Front: L C R, Side: L R, LFE
Sampling rate : 48.0 KHz
Bit depth : 24 bits
Compression mode : Lossy
Stream size : 834 MiB (2%)
Title : Профессиональный многоголосый (Супербит)
Language : Russian

Audio #6
ID : 7
Format : DTS
Format/Info : Digital Theater Systems
Codec ID : A_DTS
Duration : 2h 34mn
Bit rate mode : Constant
Bit rate : 1 510 Kbps
Channel(s) : 6 channels
Channel positions : Front: L C R, Side: L R, LFE
Sampling rate : 48.0 KHz
Bit depth : 24 bits
Compression mode : Lossy
Stream size : 1.63 GiB (4%)
Title : Профессиональный многоголосый (LDV)
Language : Russian

Audio #7
ID : 8
Format : AC-3
Format/Info : Audio Coding 3
Mode extension : CM (complete main)
Codec ID : A_AC3
Duration : 2h 34mn
Bit rate mode : Constant
Bit rate : 384 Kbps
Channel(s) : 6 channels
Channel positions : Front: L C R, Side: L R, LFE
Sampling rate : 48.0 KHz
Bit depth : 16 bits
Compression mode : Lossy
Stream size : 424 MiB (1%)
Title : Профессиональный многоголосый (1+1)
Language : Ukrainian

Audio #8
ID : 9
Format : DTS
Format/Info : Digital Theater Systems
Codec ID : A_DTS
Duration : 2h 34mn
Bit rate mode : Constant
Bit rate : 1 510 Kbps
Channel(s) : 6 channels
Channel positions : Front: L C R, Side: L R, LFE
Sampling rate : 48.0 KHz
Bit depth : 24 bits
Compression mode : Lossy
Stream size : 1.63 GiB (4%)
Title : Авторский одноголосый (Гаврилов)
Language : Russian

Audio #9
ID : 10
Format : DTS
Format/Info : Digital Theater Systems
Codec ID : A_DTS
Duration : 2h 34mn
Bit rate mode : Constant
Bit rate : 1 510 Kbps
Channel(s) : 6 channels
Channel positions : Front: L C R, Side: L R, LFE
Sampling rate : 48.0 KHz
Bit depth : 24 bits
Compression mode : Lossy
Stream size : 1.63 GiB (4%)
Title : Авторский одноголосый (Гоблин)
Language : Russian

Audio #10
ID : 11
Format : DTS
Format/Info : Digital Theater Systems
Codec ID : A_DTS
Duration : 2h 34mn
Bit rate mode : Constant
Bit rate : 1 510 Kbps
Channel(s) : 6 channels
Channel positions : Front: L C R, Side: L R, LFE
Sampling rate : 48.0 KHz
Bit depth : 24 bits
Compression mode : Lossy
Stream size : 1.63 GiB (4%)
Title : Авторский одноголосый (Горчаков)
Language : Russian

Audio #11
ID : 12
Format : DTS
Format/Info : Digital Theater Systems
Codec ID : A_DTS
Duration : 2h 34mn
Bit rate mode : Constant
Bit rate : 1 510 Kbps
Channel(s) : 6 channels
Channel positions : Front: L C R, Side: L R, LFE
Sampling rate : 48.0 KHz
Bit depth : 24 bits
Compression mode : Lossy
Stream size : 1.63 GiB (4%)
Title : Авторский одноголосый (Кашкин)
Language : Russian

Audio #12
ID : 13
Format : AC-3
Format/Info : Audio Coding 3
Mode extension : CM (complete main)
Codec ID : A_AC3
Duration : 2h 34mn
Bit rate mode : Constant
Bit rate : 448 Kbps
Channel(s) : 6 channels
Channel positions : Front: L C R, Side: L R, LFE
Sampling rate : 48.0 KHz
Bit depth : 16 bits
Compression mode : Lossy
Stream size : 495 MiB (1%)
Title : Авторский одноголосый (Марченко)
Language : Russian

Audio #13
ID : 14
Format : AC-3
Format/Info : Audio Coding 3
Mode extension : CM (complete main)
Codec ID : A_AC3
Duration : 2h 34mn
Bit rate mode : Constant
Bit rate : 192 Kbps
Channel(s) : 2 channels
Channel positions : Front: L R
Sampling rate : 48.0 KHz
Bit depth : 16 bits
Compression mode : Lossy
Stream size : 212 MiB (0%)
Title : Авторский одноголосый (Михалев)
Language : Russian

Audio #14
ID : 15
Format : AC-3
Format/Info : Audio Coding 3
Mode extension : CM (complete main)
Codec ID : A_AC3
Duration : 2h 34mn
Bit rate mode : Constant
Bit rate : 224 Kbps
Channel(s) : 2 channels
Channel positions : Front: L R
Sampling rate : 48.0 KHz
Bit depth : 16 bits
Compression mode : Lossy
Stream size : 247 MiB (1%)
Title : Комментарии
Language : English

Audio #15
ID : 16
Format : DTS
Format/Info : Digital Theater Systems
Format profile : MA / Core
Codec ID : A_DTS
Duration : 2h 34mn
Bit rate mode : Variable
Bit rate : 1 852 Kbps / 1 510 Kbps
Channel(s) : 6 channels
Channel positions : Front: L C R, Side: L R, LFE
Sampling rate : 48.0 KHz
Bit depth : 24 bits
Compression mode : Lossless / Lossy
Title : Оригинал
Language : English

Text #1
ID : 17
Format : PGS
Codec ID : S_HDMV/PGS
Codec ID/Info : The same subtitle format used on BDs/HD-DVDs
Title : Full
Language : English

Text #2
ID : 18
Format : PGS
Codec ID : S_HDMV/PGS
Codec ID/Info : The same subtitle format used on BDs/HD-DVDs
Title : Full
Language : Russian

Text #3
ID : 19
Format : PGS
Codec ID : S_HDMV/PGS
Codec ID/Info : The same subtitle format used on BDs/HD-DVDs
Title : Full
Language : Ukrainian

Text #4
ID : 20
Format : PGS
Codec ID : S_HDMV/PGS
Codec ID/Info : The same subtitle format used on BDs/HD-DVDs
Title : Commentary
Language : Russian
Свернуть


Качество: BD-Remux
Формат: MKV
Видео: 1920x1080 at 23.976 fps, AVC, ~28000 kbps avg
Аудио #1: Russian DTS / 5.1 / 48 kHz / 755 kbps [Дубляж]
Аудио #2: Russian AC3 / 5.1 / 48 kHz / 448 kbps [Киномания]
Аудио #3: Russian AC3 / 5.1 / 48 kHz / 448 kbps [Первый канал]
Аудио #4: Russian AC3 / 5.1 / 48 kHz / 448 kbps [Позитив-Мультимедиа]
Аудио #5: Russian DTS / 5.1 / 48 kHz / 755 kbps [Супербит]
Аудио #6: Russian DTS / 5.1 / 48 kHz / 1510 kbps [LDV]
Аудио #7: Ukrainian AC3 / 5.1 / 48 kHz / 384 kbps [1+1]
Аудио #8: Russian DTS / 5.1 / 48 kHz / 1510 kbps [Гаврилов]
Аудио #9: Russian DTS / 5.1 / 48 kHz / 1510 kbps [Пучков aka "Гоблин"]
Аудио #10: Russian DTS / 5.1 / 48 kHz / 1510 kbps [Горчаков]
Аудио #11: Russian DTS / 2.0 / 48 kHz / 1510 kbps [Кашкин]
Аудио #12: Russian AC3 / 5.1 / 48 kHz / 448 kbps [Марченко]
Аудио #13: Russian AC3 / 2.0 / 48 kHz / 192 kbps [Михалев]
Аудио #14: English AC3 / 2.0 / 48 kHz / 224 kbps [Комментарии]

Скриншоты

Изображение

Изображение

Изображение

Свернуть
Свернуть
Чужой 3 / Alien³ (1992)
Чужой 3 / Alien³


«Снова началось...»

Изображение
Год выпуска: 1992
Страна: США
Жанр: фантастика, боевик, триллер
Продолжительность: 02:24:52
Перевод: Профессиональный (полное дублирование) + Многоголосый, закадровый (Киномания) + Многоголосый, закадровый (Позитив-Мультимедиа) + Многоголосый, закадровый (Супербит) + Многоголосый, закадровый (LDV) + Многоголосый, закадровый (1+1) + Авторский, одноголосый (Гаврилов) + Авторский, одноголосый (Пучков aka "Гоблин") + Авторский, одноголосый (Живов) + Оригинал + Комментарии + Субтитры (English (Full), Russian (Full), Ukrainian (Full), Russian (Commentary), Russian (на расширенные моменты - Гоблин))

Режиссер: Дэвид Финчер
Сценарий: Дэн О’Бэннон, Рональд Шусетт, Винсент Уорд
Продюсер: Гордон Кэрролл, Дэвид Гайлер, Уолтер Хилл
Оператор: Алекс Томсон
Композитор: Эллиот Голденталь

В ролях: Сигурни Уивер, Чарльз С. Даттон, Чарльз Дэнс, Пол МакГэнн, Брайан Гловер, Ральф Браун, Дэниэл Уэбб, Кристофер Джон Филдс, Холт МакКэллани, Лэнс Хенриксен

Описание: После бегства с планеты «Чужих» космический корабль Рипли терпит катастрофу вблизи так называемой планеты — тюрьмы, места, где отсиживают свой срок убийцы, насильники и прочие отбросы общества. Вместе с Рипли на эту планету попадает зародыш чужого, который и был причиной гибели корабля. Довольно быстро он превращается в гигантскую, зубастую тварь и начинает свое темное дело.
Его жертвами становятся десятки безоружных заключенных. Кровь брызжет фонтаном, куски человеческого мяса разлетаются во все стороны. И кажется, что остановить эту машину смерти не сможет никто, никто кроме отважной, но увы не бессмертной девушки по имени Рипли.


kinopoisk.ru: 7.070 (11219)

Доп. информация
Бюджет: $50 000 000
Сборы в мире: $159 773 545
Премьера (мир): 22 мая 1992
Рейтинг R — Restricted. Подростки до 17 лет допускаются на фильм только в сопровождении одного из родителей
Изображение
Ограничение — до 17 лет требуется сопровождение родителя или взрослого опекуна (возраст может меняться в некоторых регионах). Данный рейтинг показывает, что оценочная комиссия заключила, что некоторый материал оценённого фильма предназначается для взрослых. Родители должны больше узнать о фильме прежде, чем взять на его просмотр детей. Рейтинг R также может быть назначен из-за используемого в фильме языка, темы, насилия, секса или изображения употребления наркотиков.
Свернуть
Свернуть
Знаете ли вы, что...
* Первоначально режиссером фильма должен был стать Ренни Харлин, но он покинул проект, для того чтобы снять продолжение «Крепкого орешка». Затем Винсент Уорд значился режиссером фильма, но спустя несколько месяцев он был уволен из-за творческих разногласий с продюсерами. Также на пост режиссера рассматривался сценарист фильма, Уолтер Хилл, но он отказался от данной должности, когда Дэвид Финчер получил предложение поставить фильм.
* Спустя две недели с начала съёмок оператор Алекс Томсон заменил Джордана Кроунвета из-за болезни последнего.
* В сценарии Винсента Уорда, который получил зеленый свет, действие происходило на планетоиде «Арсеон». На этом планетоиде располагался гигантский деревянный монастырь, построенный Компанией, и окруженный бескрайним морем. В монастыре проживало 350 монахов, которые верили, что они живут в постапокалиптическом средневековье. Монахи не признавали никаких современных технологий, и уклад их жизни ничем не отличался от средневековья. Когда шатл Рипли приземлился на планетоиде, монахи обвинили её в том, что именно она виновата во вторжении чужих на их землю. Рипли была беременна чужим, так сказать, традиционным способом. Поэтому она была беременна гибридом чужого-человека. Уорд покинул проект, после того как продюсеры настояли на том, чтобы он заменил монахов заключенными и отказался от идеи использования деревянного монастыря.
* Героиня Сигурни Уивер, Рипли, отсутствовала в ранних версиях сценария.
* В первых вариантах сценария действие должно было происходить в гигантском деревянном монастыре, при этом появление самого чужого не планировалось.
* После того как был закончен первый вариант сценария (в котором действие происходит в монастыре), началось возведение декораций. Так как сценарий постоянно переписывался, то работы были остановлены. Несмотря на то, что в окончательной версии сценария действие происходит в тюрьме, для съёмок фильма были использованы некоторые наполовину достроенные декорации помещений монастыря.
* В сценарии, который написал Уильям Гибсон, Рипли большую часть времени находилась в коме.
* Многочисленные переписывания сценария привели к тому, что была неправильно организована рекламная кампания фильма, которая предполагала, что действие будет происходить на Земле.
* Из-за того, что в первых вариантах сценария действие происходило на Земле, одним из ранних слоганов фильма была фраза: «On Earth, everyone can hear you scream» (На Земле каждый сможет услышать твой вопль).
* Если перевести венгерское название фильма обратно на английский язык, то получится «Final Solution: Death» (Окончательное решение: Cмерть).
* В серии комиксов, выпущенных по вселенной киносериала, действие происходило спустя несколько лет после событий в «Чужих». Повзрослевшая Ньют и Хикс пытаются помешать корпорации «Вэйланд Ютани» (Weyland Yutani) заполучить особь чужого. Комиксы были переизданы к моменту выхода «Чужого 3» (1992) на экраны.
* После завершения съёмочного периода Дэвид Финчер покинул данный проект, аргументируя это постоянным вмешательством студии в творческий процесс. Он не принимал участия в монтаже фильма.
* В конце 1991 года из-за постоянно возникающих сложностей, съёмки фильма были остановлены на «Pinewood Studios» (Англия) и перенесены в Лос-Анджелес. Одной из сцен, которые предстояло снять, была сцена убийства чужого в бассейне со свинцом. От Сигурни Уивер снова требовалось побрить наголо голову. Она согласилась, но только если ей дополнительно заплатят $40 000. Продюсеры отклонили её предложение и наняли Грега Кэннома, для того чтобы он создал специальный парик. Парик обошелся в $16 000, и его создание потребовало много времени и усилий.
* Одна из ранних идей фильма предполагала чужого, появляющегося из груди героя Майкла Бьена, Хикса. Даже была создана модель Хикса с разорванной грудью, но после того как Бьен узнал об этом, он пригрозил подать в суд на продюсеров за использование этой модели без его согласия. В дальнейшем продюсеры отказались от этой идеи, но заплатили Бьену за использование в фильме его фотографий. По неподтвержденным данным за свои фотографии Бьен получил больше денег, чем за его роль в «Чужих» (1986).
* Фраза доктора Клеменса о Фурии-161 «…планета-тюрьма, принадлежащая Вэйлэнд Ютани» является первым упоминанием вслух названия Компании. Раньше можно было заметить название Компании на различном оборудовании и компьютерных мониторах, но персонажи всегда называли компанию просто «Компанией».
* Первоначальный бюджет фильма составлял $45 миллионов, из них $5,5 млн. — гонорар Сигурни Уивер. Однако, из-за бесконечных изменений сценария, смены режиссеров, пересъёмок бюджет вырос до $65 миллионов.
* $7 миллионов было потрачено на строительство декораций, которые так и не были использованы.
* Роль Клеменса была предложена Гэбриэлю Бирну.
* Изначально бык должен был стать животным, которое вынашивало эмбрион чужого. Позднее, создатели решили отказаться от данной идеи. Однако, оригинальные сцены были восстановлены и включены в режиссерскую версию фильма (Assembly Cut).
* Строительство декорации главного литейного цеха заняло 12 недель.
* Для того чтобы создать труп Ребекки (Ньют), создатели фильма использовали куклу Кэрри Хенн, сделанную в натуральную величину специально для съёмок «Чужих» (1986).
* Съёмки фильма пришлось прервать на три месяца до тех пор, пока не было завершено очередное переписывание сценария.
* За пределами съёмочной площадки Сигурни Уивер пришлось носить парик, т.к. её двухлетней дочке уж очень не нравилась лысая мама.
* В данном фильме чужой отличается от себе подобных в предыдущих картинах: у него более четко выражены губы и отсутствуют органические трубки на спине.
* Монтаж фильма продолжался около года.
* Кран, который подымает спасательную шлюпку из воды, был построен из различных частей истребителя X-Wing из «Звездных воин».
* На поверхности планеты можно заметить крест, символизирующий религию, которую приняли заключенные. Декораторы создали четыре модели креста, после чего Дэвид Финчер выбрал одну из них.
* Большинство декораций завода было сделано из картона.
* Х.Р. Гигер разработал внешний вид чужого, который напоминал пуму с клешнями. Продюсеры также сказали ему, чтобы он сделал модели чужих более сексуальными. Гигер предложил модель чужого, у которого были женские губы. Одна из его идей заключалось в том, что чужой целует жертву, тем самым убивая её. Данная идея была использована в «Особи» (1995), где внешний вид инопланетного существа также разработал Гигер.
* Гонорар за работу над этим фильмом Винсент Уорд использовал для финансирования своей следующей картины «Карта человеческого сердца» (1993).
* В контракте Сигурни Уивер был специальным пункт, гласящий, что сценарий фильма должны были обязательно написать Уолтер Хилл и Дэвид Гилер. По словам Уивер, Рипли – сложный образ, и только Джеймсу Камерону, Хиллу и Гилеру удалось раскрыть данный персонаж.
* Один из отцов-основателей киберпанка, Уильям Гибсон, написал свой вариант сценария, который, по мнению многих, является лучшим сценарием среди тех, что были написаны для третьей части. Сценарий датирован 1989 годом, когда участие Сигурни Уивер в фильме было под вопросом, поэтому во главу сюжета были поставлены Хикс и Бишоп (персонажи из «Чужих» (1986)). Единственное, что осталось от идей Гибсона в «Чужом 3» - тюремные номера на шеях заключенных.
* Эрик Ред, Дэвид Туи, Джон Фазано и Рекс Пикетт написали свои версии сценария фильма. В настоящее время их работы можно легко найти в Интернете.
* На одном из этапов разработки проекта рассматривались различные варианты сюжета, в которых отсутствовала Рипли. Однако некоторое время спустя, Джо Рот (на тот момент президент студии 20th Century Fox) заявил, что продолжение будет снято, только если в него вернется героиня Сигурни Уивер.
* После того как Дэвид Финчер разругался с продюсерами, ему было отказано в съёмках кульминационной сцены фильма, где Рипли и чужой встречаются лицом к лицу. Несмотря на запрет, Финчер снял данную сцену. Именно его вариант был использован при окончательном монтаже картины.
* В 2004 году студия «20th Century Fox» выпустила специальное издание всех четырех фильмов на DVD – «Alien Quadrilogy». Студия очень хотела, чтобы Дэвид Финчер смонтировал свой вариант картины и записал комментарии к ней, но Дэвид отказался. Финчер – единственный режиссер фильмов о чужих, который отказался иметь что-либо общее с проектом после завершения съёмок.
* Специальная версия 2003 года имеет хронометраж 145 минут.
Свернуть
Награды и номинации
 Оскар, 1993 год
Номинации:
  • Лучшие визуальные эффекты

 Премия канала «MTV», 1993 год
Номинации:
  • Лучшая экшн-сцена

 Британская академия, 1993 год
Номинации:
  • Лучшие визуальные эффекты

 Сатурн, 1993 год
Номинации:
  • Лучшая актриса (Сигурни Уивер)
  • Лучший актер второго плана (Чарльз С. Даттон)
  • Лучший режиссер (Дэвид Финчер)
  • Лучший сценарий
  • Лучшие костюмы
  • Лучшие спецэффекты
  • Лучший научно-фантастический фильм
Свернуть
MediaInfo
Video
ID : 1
Format : AVC
Format/Info : Advanced Video Codec
Format profile : High@L4.1
Format settings, CABAC : Yes
Format settings, ReFrames : 4 frames
Codec ID : V_MPEG4/ISO/AVC
Duration : 2h 24mn
Bit rate mode : Variable
Bit rate : 20.5 Mbps
Maximum bit rate : 37.0 Mbps
Width : 1 920 pixels
Height : 1 080 pixels
Display aspect ratio : 16:9
Frame rate : 23.976 fps
Color space : YUV
Chroma subsampling : 4:2:0
Bit depth : 8 bits
Scan type : Progressive
Bits/(Pixel*Frame) : 0.412
Stream size : 20.7 GiB (62%)
Color primaries : BT.709-5, BT.1361, IEC 61966-2-4, SMPTE RP177
Transfer characteristics : BT.709-5, BT.1361
Matrix coefficients : BT.709-5, BT.1361, IEC 61966-2-4 709, SMPTE RP177

Audio #1
ID : 2
Format : DTS
Format/Info : Digital Theater Systems
Codec ID : A_DTS
Duration : 2h 24mn
Bit rate mode : Constant
Bit rate : 755 Kbps
Channel(s) : 6 channels
Channel positions : Front: L C R, Side: L R, LFE
Sampling rate : 48.0 KHz
Bit depth : 24 bits
Compression mode : Lossy
Stream size : 782 MiB (2%)
Title : Дубляж
Language : Russian

Audio #2
ID : 3
Format : AC-3
Format/Info : Audio Coding 3
Mode extension : CM (complete main)
Codec ID : A_AC3
Duration : 2h 24mn
Bit rate mode : Constant
Bit rate : 448 Kbps
Channel(s) : 6 channels
Channel positions : Front: L C R, Side: L R, LFE
Sampling rate : 48.0 KHz
Bit depth : 16 bits
Compression mode : Lossy
Stream size : 464 MiB (1%)
Title : Профессиональный многоголосый (Киномания)
Language : Russian

Audio #3
ID : 4
Format : AC-3
Format/Info : Audio Coding 3
Mode extension : CM (complete main)
Codec ID : A_AC3
Duration : 2h 24mn
Bit rate mode : Constant
Bit rate : 448 Kbps
Channel(s) : 6 channels
Channel positions : Front: L C R, Side: L R, LFE
Sampling rate : 48.0 KHz
Bit depth : 16 bits
Compression mode : Lossy
Stream size : 464 MiB (1%)
Title : Профессиональный многоголосый (Позитив-Мультимедиа)
Language : Russian

Audio #4
ID : 5
Format : DTS
Format/Info : Digital Theater Systems
Codec ID : A_DTS
Duration : 2h 24mn
Bit rate mode : Constant
Bit rate : 755 Kbps
Channel(s) : 6 channels
Channel positions : Front: L C R, Side: L R, LFE
Sampling rate : 48.0 KHz
Bit depth : 24 bits
Compression mode : Lossy
Stream size : 782 MiB (2%)
Title : Профессиональный многоголосый (Супербит)
Language : Russian

Audio #5
ID : 6
Format : DTS
Format/Info : Digital Theater Systems
Codec ID : A_DTS
Duration : 2h 24mn
Bit rate mode : Constant
Bit rate : 1 510 Kbps
Channel(s) : 6 channels
Channel positions : Front: L C R, Side: L R, LFE
Sampling rate : 48.0 KHz
Bit depth : 24 bits
Compression mode : Lossy
Stream size : 1.53 GiB (5%)
Title : Профессиональный многоголосый (LDV)
Language : Russian

Audio #6
ID : 7
Format : AC-3
Format/Info : Audio Coding 3
Mode extension : CM (complete main)
Codec ID : A_AC3
Duration : 2h 24mn
Bit rate mode : Constant
Bit rate : 384 Kbps
Channel(s) : 6 channels
Channel positions : Front: L C R, Side: L R, LFE
Sampling rate : 48.0 KHz
Bit depth : 16 bits
Compression mode : Lossy
Stream size : 398 MiB (1%)
Title : Профессиональный многоголосый (1+1)
Language : Ukrainian

Audio #7
ID : 8
Format : DTS
Format/Info : Digital Theater Systems
Codec ID : A_DTS
Duration : 2h 24mn
Bit rate mode : Constant
Bit rate : 1 510 Kbps
Channel(s) : 6 channels
Channel positions : Front: L C R, Side: L R, LFE
Sampling rate : 48.0 KHz
Bit depth : 24 bits
Compression mode : Lossy
Stream size : 1.53 GiB (5%)
Title : Авторский одноголосый (Гаврилов)
Language : Russian

Audio #8
ID : 9
Format : DTS
Format/Info : Digital Theater Systems
Codec ID : A_DTS
Duration : 2h 24mn
Bit rate mode : Constant
Bit rate : 1 510 Kbps
Channel(s) : 6 channels
Channel positions : Front: L C R, Side: L R, LFE
Sampling rate : 48.0 KHz
Bit depth : 24 bits
Compression mode : Lossy
Stream size : 1.53 GiB (5%)
Title : Авторский одноголосый (Гоблин)
Language : Russian

Audio #9
ID : 10
Format : DTS
Format/Info : Digital Theater Systems
Codec ID : A_DTS
Duration : 2h 24mn
Bit rate mode : Constant
Bit rate : 1 510 Kbps
Channel(s) : 6 channels
Channel positions : Front: L C R, Side: L R, LFE
Sampling rate : 48.0 KHz
Bit depth : 24 bits
Compression mode : Lossy
Stream size : 1.53 GiB (5%)
Title : Авторский одноголосый (Живов)
Language : Russian

Audio #10
ID : 11
Format : AC-3
Format/Info : Audio Coding 3
Mode extension : CM (complete main)
Codec ID : A_AC3
Duration : 2h 24mn
Bit rate mode : Constant
Bit rate : 224 Kbps
Channel(s) : 2 channels
Channel positions : Front: L R
Sampling rate : 48.0 KHz
Bit depth : 16 bits
Compression mode : Lossy
Stream size : 232 MiB (1%)
Title : Комментарии
Language : English

Audio #11
ID : 12
Format : DTS
Format/Info : Digital Theater Systems
Format profile : MA / Core
Codec ID : A_DTS
Duration : 2h 24mn
Bit rate mode : Variable
Bit rate : 2 599 Kbps / 1 510 Kbps
Channel(s) : 6 channels
Channel positions : Front: L C R, Side: L R, LFE
Sampling rate : 48.0 KHz
Bit depth : 24 bits
Compression mode : Lossless / Lossy
Title : Оригинал
Language : English

Text #1
ID : 13
Format : PGS
Codec ID : S_HDMV/PGS
Codec ID/Info : The same subtitle format used on BDs/HD-DVDs
Title : Full
Language : English

Text #2
ID : 14
Format : PGS
Codec ID : S_HDMV/PGS
Codec ID/Info : The same subtitle format used on BDs/HD-DVDs
Title : Full
Language : Russian

Text #3
ID : 15
Format : PGS
Codec ID : S_HDMV/PGS
Codec ID/Info : The same subtitle format used on BDs/HD-DVDs
Title : Full
Language : Ukrainian

Text #4
ID : 16
Format : PGS
Codec ID : S_HDMV/PGS
Codec ID/Info : The same subtitle format used on BDs/HD-DVDs
Title : Commentary
Language : Russian

Text #5
ID : 17
Format : UTF-8
Codec ID : S_TEXT/UTF8
Codec ID/Info : UTF-8 Plain Text
Title : Extended (Goblin)
Language : Russian
Свернуть


Качество: BD-Remux
Формат: MKV
Видео: 1920x1080 at 23.976 fps, AVC, ~20500 kbps avg
Аудио #1: Russian DTS / 5.1 / 48 kHz / 755 kbps [Дубляж]
Аудио #2: Russian AC3 / 5.1 / 48 kHz / 448 kbps [Киномания]
Аудио #3: Russian AC3 / 5.1 / 48 kHz / 448 kbps [Позитив-Мультимедиа]
Аудио #4: Russian DTS / 5.1 / 48 kHz / 755 kbps [Супербит]
Аудио #5: Russian DTS / 5.1 / 48 kHz / 1510 kbps [LDV]
Аудио #6: Ukrainian AC3 / 5.1 / 48 kHz / 384 kbps [1+1]
Аудио #7: Russian DTS / 5.1 / 48 kHz / 1510 kbps [Гаврилов]
Аудио #8: Russian DTS / 5.1 / 48 kHz / 1510 kbps [Пучков aka "Гоблин"]
Аудио #9: Russian DTS / 5.1 / 48 kHz / 1510 kbps [Живов]
Аудио #10: English AC3 / 2.0 / 48 kHz / 224 kbps [Комментарии]
Аудио #11: English DTS-HD Master Audio / 7.1 / 48 kHz / 2599 kbps / 24-bit (DTS Core: 5.1 / 48 kHz / 1510 kbps / 24-bit) [Оригинал]

Скриншоты

Изображение

Изображение

Изображение

Свернуть
Свернуть
Чужой 4: Воскрешение / Alien: Resurrection (1997)
Чужой 4: Воскрешение / Alien: Resurrection


«Главное - спастись...»

Изображение
Год выпуска: 1997
Страна: США
Жанр: фантастика, боевик, триллер
Продолжительность: 01:56:08
Перевод: Профессиональный (полное дублирование) + Многоголосый, закадровый (Киномания) + Многоголосый, закадровый (Позитив-Мультимедиа) + Многоголосый, закадровый (Супербит) + Многоголосый, закадровый (LDV) + Многоголосый, закадровый (1+1) + Авторский, одноголосый (Гаврилов) + Авторский, одноголосый (Пучков aka "Гоблин") + Авторский, одноголосый (Живов) + Оригинал + Комментарии + Субтитры (English (Full), Russian (Full), Ukrainian (Full), Russian (Commentary), Russian (на расширенные моменты - Гоблин))

Режиссер: Жан-Пьер Жёне
Сценарий: Джосс Уидон, Дэн О’Бэннон, Рональд Шусетт
Продюсер: Билл Бадалато, Гордон Кэрролл, Дэвид Гайлер
Оператор: Дариус Хонджи
Композитор: Джон Фриззелл

В ролях: Сигурни Уивер, Вайнона Райдер, Доминик Пинон, Рон Перлман, Гари Дурдан, Майкл Уинкотт, Ким Флауэрс, Дэн Хедайя, Дж. Э. Фримен, Брэд Дуриф

Описание: Спустя двести лет после событий, произошедших на планете-тюрьме, группа ученых, опекаемых военным командованием, клонирует Эллен Рипли, чтобы с ее помощью заполучить детеныша инопланетного монстра. Вскоре он уже сам начинает плодиться, производя на свет новую породу — помесь кровожадного пришельца и… человека.

kinopoisk.ru: 6.896 (8618)

Доп. информация
Бюджет: $75 000 000
Сборы в мире: $161 295 658
Премьера (мир): 6 ноября 1997
Рейтинг R — Restricted. Подростки до 17 лет допускаются на фильм только в сопровождении одного из родителей
Изображение
Ограничение — до 17 лет требуется сопровождение родителя или взрослого опекуна (возраст может меняться в некоторых регионах). Данный рейтинг показывает, что оценочная комиссия заключила, что некоторый материал оценённого фильма предназначается для взрослых. Родители должны больше узнать о фильме прежде, чем взять на его просмотр детей. Рейтинг R также может быть назначен из-за используемого в фильме языка, темы, насилия, секса или изображения употребления наркотиков.
Свернуть
Свернуть
Знаете ли вы, что...
* В ранней версии сценария Джосса Уэдона, «Новорожденный» был четырехлапым существом, без глаз, с белой кожей и красными венами вдоль его головы. У него была внутренняя челюсть такая же, как и у остальных чужих. У него также были клешни на голове, которые использовались, для того чтобы держать жертву в то время, как с помощью внутренней челюсти он высасывал кровь жертвы.
* В первом варианте сценария была сцена, действие которой происходило в ботаническом саду на борту «Возничего». В этой сцене Рипли управляла джипом, в то время как остальные пассажиры отбивались от полчища чужих. Данная сцена шла после сцены в часовне, но перед сценой появления «Новорожденного». Однако, сцена так и не была снята из-за бюджетных ограничений.
* Найджл Фелпс разработал дизайн «Бетти», взяв за основу отбойный молоток. Предполагалось, что «Возничий» будет вертикальным сооружением, но от этой идеи отказались из-за сложностей разработки и построения декораций для такого сооружения.
* Рон Перлман чуть не утонул во время съёмок подводной сцены. Когда он пытался выбраться на поверхность, он ударился головой о дождевую установку, потерял сознание и был спасен находившимися рядом членами съёмочной команды.
* Джосс Уэдон написал пять версий финальной битвы с «Новорожденным». В четырех из них действие происходило на Земле в следующих локациях: в родильном отделении больницы, на гигантской свалке отходов, в снежном лесу, в пустыне.
* Компьютер «Возничего» называется «Отец» (Father). В «Чужом» (1979) компьютер назывался «Мать» (Mother). В обоих фильмах существуют похожие сцены, в которых персонажи кричат на «Мать» или «Отца» за то, что она/он не отвечает на их приказы.
* Вайнона Райдер чуть не утонула во время съёмок подводной сцены.
* Джосс Уэдон написал роль Кристи специально для Чоу Юнь-Фата. Но последний отказался от роли.
* Имена андроидов в данном киносериале идут в алфавитном порядке: в «Чужом» (1979) андроида звали Эш (Ash); в «Чужих» (1986) — Бишоп (Bishop); третьего андроида в «Чужом: Воскрешении» (1997) зовут Колл (Call). Таким образом, соблюдается последовательность английского алфавита — ABC (Ash-Bishop-Call).
* Роль, которую впоследствии исполнила Вайона Райдер, была предложена Анджелине Джоли.
* Когда фильм шел в кинотеатрах, имя Эйч. Р. Гигера отсутствовало в финальных титрах. При выходе фильма на видео данная ошибка была исправлена. Гигер выполнял определенные работы по дизайну чужих.
* Первоначально планировалось, что четвертая часть киносериала станет киноадаптацией популярного комикса «Чужой против Хищника».
* Перед сценаристом фильма стояла сложная задача — каким-то образом вернуть персонаж Сигурни Уивер в киносериал. Ранняя версия сценария предполагала, что Рипли просыпается на борту «Сулако» и понимает, что все события, произошедшие с ней в «Чужом 3» (1992), ей приснились.
* Жан-Пьер Жане хотел включить в фильм сцену, в которой комар кусает Рипли, но затем в буквальном смысле растворяется в воздухе из-за её крови, в которой содержится кислота. В конце концов, он отказался от этой идеи, узнав, сколько времени и денег потребуется, для того чтобы сделать эту сцену.
* Гонорар Сигурни Уивер за этот фильм составил большую величину, чем весь бюджет «Чужого» (1979).
* Роль доктора Рена была специально написана для Билла Мюррея, с прицелом на то, чтобы вновь объединить Билла Мюррея и Сигурни Уивер на одной съёмочной площадки после «Охотников за привидениями» (1984).
* Вайона Райдер дала согласие на свое участие в фильме, даже не читая сценария. Она заявила, что сыграет любую роль, даже если её персонажу будет суждено погибнуть в первой сцене фильма.
* Сигурни Уивер на самом деле сделала тот самый фантастический баскетбольный бросок из-за спины. Чтобы этого достичь, ей потребовалось две недели тренировок под наставлением баскетбольного тренера. По окончанию курса тренировок в среднем она попадала в корзину один мяч из шести. Во время съёмок данной сцены она забросила мяч с первой попытки, находясь при этом на расстоянии шести футов (примерно 183 см) дальше трехочковой отметки. При монтаже фильма Жан-Пьер Жане хотел убрать данную сцену из фильма, потому что, по его мнению, зрители будут считать этот бросок слишком неправдоподобным. По требованию Сигурни сцену сохранили. Сама она называет данный бросок одним из самых прекрасных моментов в её жизни, разумеется, после свадьбы и рождения дочери.
* Во время пре-продакшна выяснилось, что ни одной модели Королевы чужих в натуральную величину не сохранилось. К счастью продюсеров копия модели Королевы нашлась… у одного фаната киносериала.
* При окончательном монтаже студия хотела, чтобы сцену, предшествующую столкновению Рипли и Королевы чужих, вырезали из фильма. Дело в том, что данную сцену можно истолковать, как любовную сцену. Но сцена была сохранена, после того как Сигурни Уивер пригрозила не участвовать в рекламной компании фильма, если данную сцену вырежут из фильма.
* Во время съёмок Жан-Пьер Жане почти не знал английского языка.
* Жан-Пьер Жане хотел снять дополнительную сцену, в которой Новорожденный преследует Рипли при бегстве с «Бетти». В данной сцене планировалось показать Новорожденного полностью сгенерированного на компьютере. Идеи Жан-Пьера Жана не суждено было воплотиться в жизнь из-за бюджетных ограничений.
* Бюджет в $50-60 миллионов был намного меньше того, на что надеялись режиссер и сценарист фильма. Поэтому, декорации были не настолько масштабными, как планировалось; и в фильме использовано очень много крупных планов.
* Студия планировала, что сценарий к фильму напишет Джон Ходж, а режиссером будет Дэнни Бойл. Но и тот и другой отказались, для того чтобы объединить свои усилия для создания «Жизнь хуже обычной» (1997).
* На ранней стадии разработки проекта кандидатура Дэвида Кроненберга рассматривалась на пост режиссера.
* «Чужой: Воскрешение» стал первым фильмом в фильмотографии Жана-Пьерра Жене, в котором ему не пришлось делить режиссерское кресло с кем-либо еще.
* Первый кадр клона Рипли, выглядевшего как маленькая девочка, был создан на основе детских фотографий Сигурни Уивер, которыми она любезно поделилась с командой по спецэффектам.
* Изначально Жан-Пьерр Жене хотел, чтобы главного злодея сделали женщиной. Однако, продюсеры отклонили данную идею, посчитав, что в фильме уже есть два главных женских персонажа.
* Вполне может показаться, что специально для фильма был построен целый лабиринт бесконечных коридоров. Однако, для картины было сделано всего две декорации коридоров.
* Чем дольше герои фильма бродят по бесконечным коридорам космического корабля, тем более темными и зловещими становятся локации.
* Для съёмок подводной сцены в воду специально добавляли молоко, т.к. вода была слишком прозрачной, и зрителем могло показаться, что действие происходит не под водой.
* Подводную сцену снимали в течение трех недель.
* В дизайн «Новорожденного» специально добавили четко выделенные глаза, для того чтобы разубедить тех, кто уверял, что чужие не могут видеть, т.к. у них нет глаз.
* Подводная сцена снималась в специально построенном для фильма водном резервуаре на студии 20th Century Fox. Потребовалась неделя, чтобы заполнить его водой.
* Актеры прошли целый курс предварительных тренировок перед съёмками подводной сцены. Сигурни Уивер пропустила большинство из них, т.к. в то же самое время она играла в пьесе на Бродвее.
* Код, который произносит Элджин, для посадки на «Возничем» - «EA-TM-E».
* Для выпуска специального издания всех четырех фильмов на DVD «Alien Quadrilogy», студии Frantic Films поручили добавить в начало фильма зубы жука, которые напоминали челюсти чужого.
* Изначально костюм Рипли должен был быть другим. Но когда Сигурни Уивер увидела костюм Ким Флауэрс, она потребовала, чтобы её героиню одели в точно такое же облачение.
* Во многом Сигурни Уивер согласилась сниматься в фильме из-за сцены, где Рипли 8 уничтожает её семерых неудавшихся клонов.
* Рон Перлман самостоятельно исполнил трюк в сцене, где его персонаж висит вниз головой на лестнице и стреляет из двух пистолетов.
* Изначально Дэвид Гилер отказывался делать четвертый фильм.
* «Чужой: Воскрешение» стал единственным фильмом о чужих, который не был снят в Англии. Одна из причин переноса места съёмок – Сигурни Уивер не хотелось покидать родную страну.
* Съёмочная группа столкнулась с проблемой поиска места для съёмок фильма. Дело в том, что в то же самое время снимались «Титаник» (1997), «Звездный десант» (1997) и «Парк Юрского периода 2: Затерянный мир» (1997), которые задействовали практически все свободные павильоны.
* Изначально лицо «Новорожденного» должно было напоминать Рипли, но авторам фильма пришлось отказаться от данной идеи, т.к. в «Особи» (1995) уже использовался такой подход к созданию монстра.
Свернуть
Награды и номинации
 Сатурн, 1998 год
Номинации:
  • Лучшая актриса (Сигурни Уивер)
  • Лучшая актриса второго плана (Вайнона Райдер)
  • Лучший режиссер (Жан-Пьер Жёне)
  • Лучшие костюмы
  • Лучшие спецэффекты
  • Лучший научно-фантастический фильм
Свернуть
MediaInfo
Video
ID : 1
Format : AVC
Format/Info : Advanced Video Codec
Format profile : High@L4.1
Format settings, CABAC : Yes
Format settings, ReFrames : 4 frames
Codec ID : V_MPEG4/ISO/AVC
Duration : 1h 56mn
Bit rate mode : Variable
Bit rate : 31.5 Mbps
Maximum bit rate : 36.7 Mbps
Width : 1 920 pixels
Height : 1 080 pixels
Display aspect ratio : 16:9
Frame rate : 23.976 fps
Color space : YUV
Chroma subsampling : 4:2:0
Bit depth : 8 bits
Scan type : Progressive
Bits/(Pixel*Frame) : 0.633
Stream size : 25.5 GiB (73%)
Color primaries : BT.709-5, BT.1361, IEC 61966-2-4, SMPTE RP177
Transfer characteristics : BT.709-5, BT.1361
Matrix coefficients : BT.709-5, BT.1361, IEC 61966-2-4 709, SMPTE RP177

Audio #1
ID : 2
Format : DTS
Format/Info : Digital Theater Systems
Codec ID : A_DTS
Duration : 1h 56mn
Bit rate mode : Constant
Bit rate : 755 Kbps
Channel(s) : 6 channels
Channel positions : Front: L C R, Side: L R, LFE
Sampling rate : 48.0 KHz
Bit depth : 24 bits
Compression mode : Lossy
Stream size : 627 MiB (2%)
Title : Дубляж
Language : Russian

Audio #2
ID : 3
Format : AC-3
Format/Info : Audio Coding 3
Mode extension : CM (complete main)
Codec ID : A_AC3
Duration : 1h 56mn
Bit rate mode : Constant
Bit rate : 448 Kbps
Channel(s) : 6 channels
Channel positions : Front: L C R, Side: L R, LFE
Sampling rate : 48.0 KHz
Bit depth : 16 bits
Compression mode : Lossy
Stream size : 372 MiB (1%)
Title : Профессиональный многоголосый (Киномания)
Language : Russian

Audio #3
ID : 4
Format : DTS
Format/Info : Digital Theater Systems
Codec ID : A_DTS
Duration : 1h 56mn
Bit rate mode : Constant
Bit rate : 755 Kbps
Channel(s) : 6 channels
Channel positions : Front: L C R, Side: L R, LFE
Sampling rate : 48.0 KHz
Bit depth : 24 bits
Compression mode : Lossy
Stream size : 627 MiB (2%)
Title : Профессиональный многоголосый (Позитив-Мультимедиа)
Language : Russian

Audio #4
ID : 5
Format : AC-3
Format/Info : Audio Coding 3
Mode extension : CM (complete main)
Codec ID : A_AC3
Duration : 1h 56mn
Bit rate mode : Constant
Bit rate : 384 Kbps
Channel(s) : 6 channels
Channel positions : Front: L C R, Side: L R, LFE
Sampling rate : 48.0 KHz
Bit depth : 16 bits
Compression mode : Lossy
Stream size : 319 MiB (1%)
Title : Профессиональный многоголосый (Супербит)
Language : Russian

Audio #5
ID : 6
Format : DTS
Format/Info : Digital Theater Systems
Codec ID : A_DTS
Duration : 1h 56mn
Bit rate mode : Constant
Bit rate : 1 510 Kbps
Channel(s) : 6 channels
Channel positions : Front: L C R, Side: L R, LFE
Sampling rate : 48.0 KHz
Bit depth : 24 bits
Compression mode : Lossy
Stream size : 1.22 GiB (3%)
Title : Профессиональный многоголосый (LDV)
Language : Russian

Audio #6
ID : 7
Format : AC-3
Format/Info : Audio Coding 3
Mode extension : CM (complete main)
Codec ID : A_AC3
Duration : 1h 56mn
Bit rate mode : Constant
Bit rate : 384 Kbps
Channel(s) : 6 channels
Channel positions : Front: L C R, Side: L R, LFE
Sampling rate : 48.0 KHz
Bit depth : 16 bits
Compression mode : Lossy
Stream size : 319 MiB (1%)
Title : Профессиональный многоголосый (1+1)
Language : Ukrainian

Audio #7
ID : 8
Format : DTS
Format/Info : Digital Theater Systems
Codec ID : A_DTS
Duration : 1h 56mn
Bit rate mode : Constant
Bit rate : 1 510 Kbps
Channel(s) : 6 channels
Channel positions : Front: L C R, Side: L R, LFE
Sampling rate : 48.0 KHz
Bit depth : 24 bits
Compression mode : Lossy
Stream size : 1.22 GiB (3%)
Title : Авторский одноголосый (Гаврилов)
Language : Russian

Audio #8
ID : 9
Format : DTS
Format/Info : Digital Theater Systems
Codec ID : A_DTS
Duration : 1h 56mn
Bit rate mode : Constant
Bit rate : 1 510 Kbps
Channel(s) : 6 channels
Channel positions : Front: L C R, Side: L R, LFE
Sampling rate : 48.0 KHz
Bit depth : 24 bits
Compression mode : Lossy
Stream size : 1.22 GiB (3%)
Title : Авторский одноголосый (Гоблин)
Language : Russian

Audio #9
ID : 10
Format : DTS
Format/Info : Digital Theater Systems
Codec ID : A_DTS
Duration : 2h 24mn
Bit rate mode : Constant
Bit rate : 1 510 Kbps
Channel(s) : 6 channels
Channel positions : Front: L C R, Side: L R, LFE
Sampling rate : 48.0 KHz
Bit depth : 24 bits
Compression mode : Lossy
Stream size : 1.53 GiB (5%)
Title : Авторский одноголосый (Живов)
Language : Russian

Audio #10
ID : 11
Format : AC-3
Format/Info : Audio Coding 3
Mode extension : CM (complete main)
Codec ID : A_AC3
Duration : 2h 24mn
Bit rate mode : Constant
Bit rate : 224 Kbps
Channel(s) : 2 channels
Channel positions : Front: L R
Sampling rate : 48.0 KHz
Bit depth : 16 bits
Compression mode : Lossy
Stream size : 232 MiB (1%)
Title : Комментарии
Language : English

Audio #11
ID : 12
Format : DTS
Format/Info : Digital Theater Systems
Format profile : MA / Core
Codec ID : A_DTS
Duration : 2h 24mn
Bit rate mode : Variable
Bit rate : 2 599 Kbps / 1 510 Kbps
Channel(s) : 6 channels
Channel positions : Front: L C R, Side: L R, LFE
Sampling rate : 48.0 KHz
Bit depth : 24 bits
Compression mode : Lossless / Lossy
Title : Оригинал
Language : English

Text #1
ID : 13
Format : PGS
Codec ID : S_HDMV/PGS
Codec ID/Info : The same subtitle format used on BDs/HD-DVDs
Title : Full
Language : English

Text #2
ID : 14
Format : PGS
Codec ID : S_HDMV/PGS
Codec ID/Info : The same subtitle format used on BDs/HD-DVDs
Title : Full
Language : Russian

Text #3
ID : 15
Format : PGS
Codec ID : S_HDMV/PGS
Codec ID/Info : The same subtitle format used on BDs/HD-DVDs
Title : Full
Language : Ukrainian

Text #4
ID : 16
Format : PGS
Codec ID : S_HDMV/PGS
Codec ID/Info : The same subtitle format used on BDs/HD-DVDs
Title : Commentary
Language : Russian

Text #5
ID : 17
Format : UTF-8
Codec ID : S_TEXT/UTF8
Codec ID/Info : UTF-8 Plain Text
Title : Extended (Goblin)
Language : Russian
Свернуть


Качество: BD-Remux
Формат: MKV
Видео: 1920x1080 at 23.976 fps, AVC, ~31500 kbps avg
Аудио #1: Russian DTS / 5.1 / 48 kHz / 755 kbps [Дубляж]
Аудио #2: Russian AC3 / 5.1 / 48 kHz / 448 kbps [Киномания]
Аудио #3: Russian DTS / 5.1 / 48 kHz / 755 kbps [Позитив-Мультимедиа]
Аудио #4: Russian AC3 / 5.1 / 48 kHz / 384 kbps [Супербит]
Аудио #5: Russian DTS / 5.1 / 48 kHz / 1510 kbps [LDV]
Аудио #6: Ukrainian AC3 / 5.1 / 48 kHz / 384 kbps [1+1]
Аудио #7: Russian DTS / 5.1 / 48 kHz / 1510 kbps [Гаврилов]
Аудио #8: Russian DTS / 5.1 / 48 kHz / 1510 kbps [Пучков aka "Гоблин"]
Аудио #9: Russian DTS / 5.1 / 48 kHz / 1510 kbps [Живов]
Аудио #10: English AC3 / 2.0 / 48 kHz / 224 kbps [Комментарии]
Аудио #11: English DTS-HD Master Audio / 7.1 / 48 kHz / 1843 kbps / 24-bit (DTS Core: 5.1 / 48 kHz / 1510 kbps / 24-bit) [Оригинал]

Скриншоты

Изображение

Изображение

Изображение

Свернуть
Свернуть

Раздача: Изображение
Не в сети
Профиль  
 Добавлено: 2012-02-17 10:49 (спустя 12 часов)
Top-releaser
Аватара пользователя
Стаж: 6 лет 11 месяцев
Возраст: 23
Сообщений: 2084
Спасибок: 11191
Лайков: 13
Думаю, что Иванишко не будет ругаться, если в объявления помещу.
:)
_________________
Изображение
РАЗДАЧИ БОЛЬШЕ НЕ ПОДДЕРЖИВАЮ, простите.
Не в сети
Профиль  
 Добавлено: 2012-03-09 15:52 (спустя 21 день)
Аватара пользователя
Стаж: 7 лет 2 месяца
Возраст: 30
Сообщений: 27
скорости...пжлст :'(
Не в сети
Профиль  
 Добавлено: 2012-03-10 18:46 (спустя 1 день 2 часа)
Аватара пользователя
Стаж: 7 лет 2 месяца
Возраст: 30
Сообщений: 27
прибавьте скорости :ny_tik:
Не в сети
Профиль  
 Добавлено: 2012-10-07 16:21 (спустя 6 месяцев)
Аватара пользователя
Стаж: 4 года 11 месяцев
Сообщений: 67
после прометея придется пересмотреть классику
Не в сети
Профиль  
 Добавлено: 2013-01-04 23:14 (спустя 2 месяца 28 дней)
Аватара пользователя
Стаж: 3 года 11 месяцев
Возраст: 35
Сообщений: 22
Спасибок: 255
андрэус
аналогично :)
Не в сети
Профиль  
 Добавлено: 2013-08-03 20:03 (спустя 6 месяцев)
Аватара пользователя
Стаж: 8 лет 7 месяцев
Сообщений: 17
Спасибок: 40
Скорости прибавьте пжлста, а то даже за неделю не скачать.. :du_ma_et:
Не в сети
Профиль  
 Добавлено: 2013-12-11 20:40 (спустя 4 месяца 8 дней)
Аватара пользователя
Стаж: 8 лет 2 месяца
Сообщений: 201
Спасибок: 8
Лайков: 4
Ребят, встаньте на раздачу кто может, пожалуйста
Не в сети
Профиль  
 Добавлено: 2013-12-16 17:51 (спустя 4 дня)
Стаж: 2 года 11 месяцев
Сообщений: 21
классно , добавлю в свою коллекцию
_________________
Быстрый , стабильный заработок , без начальных вложений , до 30 $ в день , попробуйте и убедитесь сами
http://vk.com/club63014972, здесь все подробно описано , начните зарабатывать уже сегодня.
если что-то непонятно , постучите в скайп rinat_flash , все объясню и покажу.
Не в сети
Профиль  
 Добавлено: 2014-05-30 14:16 (спустя 5 месяцев 13 дней)
Стаж: 2 года 6 месяцев
Сообщений: 5
Рекомендую к скачке)

_________________________________
http://www.jettravel.ru/italy/
Не в сети
Профиль  
 Добавлено: 2015-08-31 08:25 (спустя 1 год 3 месяца)
Стаж: 8 лет 1 месяц
Сообщений: 3
ребята помоготе докачать . Осталось 23 %. Пожалуйста
Не в сети
Профиль  
Начать новую темуОтветить на тему  [ Сообщений: 11 ] 
Вы не можете начинать темы
Вы не можете отвечать на сообщения
Вы не можете редактировать свои сообщения
Вы не можете удалять свои сообщения