Правила форума

Здесь находятся раздачи, на которых не было полного источника (сида) более месяца.
Вы можете вернуть релиз в соответствующий раздел, для этого напишите нам в специальной теме и встаньте на раздачу.
Новые релизы, повторяющие релизы в архиве, повторами не считаются.
Начать новую темуОтветить на тему  [ 1 сообщение ] 
Сообщения
 Добавлено: 2012-08-03 07:17
Top-releaser
Аватара пользователя
Стаж: 6 лет 7 месяцев
Сообщений: 2078
Спасибок: 3230
Лайков: 9
Изображение

Цыпочка / The Hot Chick


Год выпуска: 2002
Страна: США
Слоган: «Однажды она проснулась не в себе... В буквальном смысле!»
Жанр: фэнтези, комедия
Продолжительность: 01:44:22
Перевод: Профессиональный (полное дублирование)
Режиссер: Том Брэди
Сценарий: Том Брэди, Роб Шнайдер
Продюсер: Карр Д’Анджело, Джон Шнайдер, Джек Джиррапуто, Йен Макстон-Грэхэм, Робин Мулкахи Фисичелла
Оператор: Тим Сёрстедт
Композитор: Джон Дебни
В ролях: Роб Шнайдер, Анна Фэрис, Мэттью Лоуренс, Эрик Кристиан Олсен, Роберт Дави, Мелора Хардин, Александра Холден, Рэйчел МакАдамс, Марица Мюррэй, Фэй Хаузер, Джоди Лонг, Тиа Моури
Сборы в мире: $54 639 553
Описание: Однажды проснувшись, популярная, но довольно неприятная в общении примадонна средней школы, понимает, что она стала 30-летним мужчиной, мягко выражаясь, совсем не фотомодельного вида.
Во время того, как она пробует выяснить, почему это случилось и как, черт возьми, она может вернуть свой прежний облик, девушка начинает понимать насколько поверхностной и недалекой она была раньше.
Изображение
Раздача группы: Изображение
Качество: HDTVRip, 1080i
Формат: Matroska
Видео: MPEG-2 Video; 1920x1080 (16:9); 13971 Kbps; 29,970 fps; Interlaced (Top Field First); 0,225 bit/pixel
Аудио №1: Russian; AC3; 448 Kbps; CBR; 6 ch - Дубляж, R5
Аудио №2: Russian; AC3; 384 Kbps; CBR; 6 ch - Двухголосый закадровый
Аудио №3: Russian; AC3; 192 Kbps; CBR; 2 ch - Одноголосый закадровый, С.Визгунов
Аудио №4: English; AC3; 448 Kbps; CBR; 6 ch
Аудио №5: English; AC3; 192 Kbps; CBR; 2 ch - Commentary by Director Tom Brady
Субтитры: Russian, English

"Знаете ли Вы, что..."
  • Картина является режиссерским дебютом Тома Брэди.
Свернуть
MediaInfo
Общее
Уникальный идентификатор : 214351798085838860213231397580882534202 (0xA142A797947717EAAAAFAF7168175F3A)
Полное имя : Z:\WWW\TR-Downloads\The.Hot.Chick.1080i[R.G.Daredevil].mkv
Формат : Matroska
Версия формата : Version 2
Размер файла : 11,6 Гбайт
Продолжительность : 1 ч. 44 м.
Режим общего битрейта : Переменный
Общий поток : 16,0 Мбит/сек
Название фильма : The Hot Chick (2002) - Release for HDClub by doc.logan
Дата кодирования : UTC 2011-04-04 09:49:01
Программа кодирования : mkvmerge v4.5.0 ('Speed of Light') built on Feb 1 2011 02:10:32
Библиотека кодирования : libebml v1.2.0 + libmatroska v1.1.0

Видео
Идентификатор : 1
Формат : MPEG Video
Версия формата : Version 2
Профиль формата : Main@High
Параметр BVOP формата : Да
Параметр матрицы формата : Выборочная
Идентификатор кодека : V_MPEG2
Идентификатор кодека/Информация : MPEG 1 or 2 Video
Продолжительность : 1 ч. 44 м.
Вид битрейта : Переменный
Битрейт : 14,0 Мбит/сек
Максимальный битрейт : 17,6 Мбит/сек
Ширина : 1920 пикселей
Высота : 1080 пикселей
Соотношение сторон : 16:9
Частота кадров : 29,970 кадров/сек
Цветовое пространство : YUV
Субдискретизация насыщенности : 4:2:0
Битовая глубина : 8 бит
Тип развёртки : Чересстрочная
Порядок развёртки : Верхнее поле первое
Метод сжатия : С потерями
Бит/(Пиксели*Кадры) : 0.225
Размер потока : 10,2 Гбайт (88%)
Заголовок : Release for HDClub by doc.logan
Язык : English
Default : Да
Forced : Нет

Аудио #1
Идентификатор : 2
Формат : AC-3
Формат/Информация : Audio Coding 3
Расширение режима : CM (complete main)
Параметр Endianness формата : Big
Идентификатор кодека : A_AC3
Продолжительность : 1 ч. 44 м.
Вид битрейта : Постоянный
Битрейт : 448 Кбит/сек
Каналы : 6 каналов
Расположение каналов : Front: L C R, Side: L R, LFE
Частота : 48,0 КГц
Битовая глубина : 16 бит
Метод сжатия : С потерями
Размер потока : 334 Мбайт (3%)
Заголовок : DD 5.1 @ 448 kbps – Дубляж (R5)
Язык : Russian
Default : Да
Forced : Нет

Аудио #2
Идентификатор : 3
Формат : AC-3
Формат/Информация : Audio Coding 3
Расширение режима : CM (complete main)
Параметр Endianness формата : Big
Идентификатор кодека : A_AC3
Продолжительность : 1 ч. 44 м.
Вид битрейта : Постоянный
Битрейт : 384 Кбит/сек
Каналы : 6 каналов
Расположение каналов : Front: L C R, Side: L R, LFE
Частота : 48,0 КГц
Битовая глубина : 16 бит
Метод сжатия : С потерями
Размер потока : 287 Мбайт (2%)
Заголовок : DD 5.1 @ 384 kbps – Двухголосый закадровый
Язык : Russian
Default : Нет
Forced : Нет

Аудио #3
Идентификатор : 4
Формат : AC-3
Формат/Информация : Audio Coding 3
Расширение режима : CM (complete main)
Параметр Endianness формата : Big
Идентификатор кодека : A_AC3
Продолжительность : 1 ч. 44 м.
Вид битрейта : Постоянный
Битрейт : 192 Кбит/сек
Каналы : 2 канала
Расположение каналов : Front: L R
Частота : 48,0 КГц
Битовая глубина : 16 бит
Метод сжатия : С потерями
Размер потока : 143 Мбайт (1%)
Заголовок : DD 2.0 @ 192 kbps – Одноголосый закадровый (С.Визгунов)
Язык : Russian
Default : Нет
Forced : Нет

Аудио #4
Идентификатор : 5
Формат : AC-3
Формат/Информация : Audio Coding 3
Расширение режима : CM (complete main)
Параметр Endianness формата : Big
Идентификатор кодека : A_AC3
Продолжительность : 1 ч. 44 м.
Вид битрейта : Постоянный
Битрейт : 448 Кбит/сек
Каналы : 6 каналов
Расположение каналов : Front: L C R, Side: L R, LFE
Частота : 48,0 КГц
Битовая глубина : 16 бит
Метод сжатия : С потерями
Размер потока : 334 Мбайт (3%)
Заголовок : DD 5.1 @ 448 kbps
Язык : English
Default : Нет
Forced : Нет

Аудио #5
Идентификатор : 6
Формат : AC-3
Формат/Информация : Audio Coding 3
Расширение режима : CM (complete main)
Параметр Endianness формата : Big
Идентификатор кодека : A_AC3
Продолжительность : 1 ч. 44 м.
Вид битрейта : Постоянный
Битрейт : 192 Кбит/сек
Каналы : 2 канала
Расположение каналов : Front: L R
Частота : 48,0 КГц
Битовая глубина : 16 бит
Метод сжатия : С потерями
Размер потока : 143 Мбайт (1%)
Заголовок : DD 2.0 @ 192 kbps – Commentary by director Tom Brady
Язык : English
Default : Нет
Forced : Нет

Текст #1
Идентификатор : 7
Формат : UTF-8
Идентификатор кодека : S_TEXT/UTF8
Идентификатор кодека/Информация : UTF-8 Plain Text
Заголовок : R5
Язык : Russian
Default : Нет
Forced : Нет

Текст #2
Идентификатор : 8
Формат : UTF-8
Идентификатор кодека : S_TEXT/UTF8
Идентификатор кодека/Информация : UTF-8 Plain Text
Язык : English
Default : Нет
Forced : Нет

Текст #3
Идентификатор : 9
Формат : UTF-8
Идентификатор кодека : S_TEXT/UTF8
Идентификатор кодека/Информация : UTF-8 Plain Text
Заголовок : Аудиокомментарий режиссёра Тома Брэди (R5)
Язык : Russian
Default : Нет
Forced : Нет

Меню
00:00:00.000 : en:Opening Credits/The Hot Chick
00:10:24.725 : en:The Thief
00:17:58.446 : en:The Next Morning
00:30:50.818 : en:The Suspects
00:41:05.499 : en:"This Is My Song"
00:50:30.698 : en:Catfight
00:53:02.183 : en:Confessions
01:03:58.673 : en:Mother-Daughter Bonding
01:13:04.051 : en:Cheerleading Competition
01:19:11.052 : en:The Prom
01:28:57.004 : en:"More Than A Woman"
01:34:22.964 : en:Happy Endings
01:37:26.414 : en:End Credits
Свернуть
Скриншоты
Изображение
Изображение
Изображение
Изображение
Изображение
Свернуть
Не в сети
Профиль  
Начать новую темуОтветить на тему  [ 1 сообщение ] 
Вы не можете начинать темы
Вы не можете отвечать на сообщения
Вы не можете редактировать свои сообщения
Вы не можете удалять свои сообщения