Правила форума

Здесь находятся раздачи, на которых не было полного источника (сида) более месяца.
Вы можете вернуть релиз в соответствующий раздел, для этого напишите нам в специальной теме и встаньте на раздачу.
Новые релизы, повторяющие релизы в архиве, повторами не считаются.
Начать новую темуОтветить на тему  [ Сообщений: 3 ] 
Сообщения
 Добавлено: 2014-01-24 22:35
Аватара пользователя
Стаж: 3 года 6 месяцев
Сообщений: 175
Спасибок: 4258
Лайков: 29
Далласский клуб покупателей / Dallas Buyers Club

Изображение


Год выпуска: 2013
Страна: США
Жанр: драма, биография, история
Продолжительность: 01:56:57
Перевод: Любительский (одноголосый закадровый) [Vano]

Режиссёр: Жан-Марк Валле
В ролях: Мэттью МакКонахи, Дженнифер Гарнер, Джаред Лето, Стив Зан, Дэнис О’Харе, Кевин О. Ранкин, Даллас Робертс, Стеффи Гроут, Джанин Хилл, Гриффин Данн
Описание: Реальная история Рона Вудруфа, техасского электрика, у которого в 1986 году обнаружили СПИД. Тогда врачи отвели ему всего полгода, но он не пожелал смириться со смертным приговором и сумел продлить свою жизнь, принимая нетрадиционные лекарства, а затем наладил подпольный и прибыльный бизнес по продаже их другим больным.
Изображение
Изображение

Качество: BDRip 720p
Формат: MKV
Видео кодек: AVC
Аудио кодек: AC3 (Dolby Digital), DTS
Видео: 5180 kb/s, 1280x536, 23.976 fps
Аудио #1: Russian: AC3, 192 kb/s, 2 ch, 48.0 KHz
Аудио #2: English: DTS, 1510 kb/s, 6 ch, 48.0 KHz
Скриншоты
Изображение
Изображение
Изображение
Свернуть

MI
General
Unique ID : 173726505308596103053563429581500972436 (0x82B28203D16556B3AAE7D3CC8B63FD94)
Complete name : F:\ФИЛЬМЫ\Dallas.Buyers.Club.2013.L1.BDRip.720p.mkv
Format : Matroska
Format version : Version 4 / Version 2
File size : 5.62 GiB
Duration : 1h 56mn
Overall bit rate : 6 880 Kbps
Encoded date : UTC 2014-01-24 03:11:30
Writing application : mkvmerge v6.1.0 ('Old Devil') built on Mar 4 2013 09:10:42
Writing library : libebml v1.3.0 + libmatroska v1.4.0

Video
ID : 1
Format : AVC
Format/Info : Advanced Video Codec
Format profile : High@L3.1
Format settings, CABAC : Yes
Format settings, ReFrames : 5 frames
Codec ID : V_MPEG4/ISO/AVC
Duration : 1h 56mn
Bit rate : 5 180 Kbps
Width : 1 280 pixels
Height : 536 pixels
Display aspect ratio : 2.40:1
Frame rate mode : Constant
Frame rate : 23.976 fps
Color space : YUV
Chroma subsampling : 4:2:0
Bit depth : 8 bits
Scan type : Progressive
Bits/(Pixel*Frame) : 0.315
Stream size : 4.12 GiB (73%)
Writing library : x264 core 140 r2377 1ca7bb9
Encoding settings : cabac=1 / ref=5 / deblock=1:0:0 / analyse=0x3:0x133 / me=umh / subme=8 / psy=1 / psy_rd=1.00:0.00 / mixed_ref=1 / me_range=16 / chroma_me=1 / trellis=1 / 8x8dct=1 / cqm=0 / deadzone=21,11 / fast_pskip=0 / chroma_qp_offset=-2 / threads=12 / lookahead_threads=2 / sliced_threads=0 / nr=0 / decimate=1 / interlaced=0 / bluray_compat=0 / constrained_intra=0 / bframes=3 / b_pyramid=2 / b_adapt=2 / b_bias=0 / direct=3 / weightb=1 / open_gop=0 / weightp=2 / keyint=250 / keyint_min=23 / scenecut=40 / intra_refresh=0 / rc_lookahead=50 / rc=2pass / mbtree=1 / bitrate=5180 / ratetol=1.0 / qcomp=0.60 / qpmin=0 / qpmax=69 / qpstep=4 / cplxblur=20.0 / qblur=0.5 / ip_ratio=1.40 / aq=1:1.00
Language : English
Default : Yes
Forced : No

Audio #1
ID : 2
Format : AC-3
Format/Info : Audio Coding 3
Mode extension : CM (complete main)
Format settings, Endianness : Big
Codec ID : A_AC3
Duration : 1h 56mn
Bit rate mode : Constant
Bit rate : 192 Kbps
Channel(s) : 2 channels
Channel positions : Front: L R
Sampling rate : 48.0 KHz
Bit depth : 16 bits
Compression mode : Lossy
Stream size : 161 MiB (3%)
Language : Russian
Default : Yes
Forced : No

Audio #2
ID : 3
Format : DTS
Format/Info : Digital Theater Systems
Mode : 16
Format settings, Endianness : Big
Codec ID : A_DTS
Duration : 1h 56mn
Bit rate mode : Constant
Bit rate : 1 509 Kbps
Channel(s) : 6 channels
Channel positions : Front: L C R, Side: L R, LFE
Sampling rate : 48.0 KHz
Bit depth : 24 bits
Compression mode : Lossy
Stream size : 1.23 GiB (22%)
Language : English
Default : No
Forced : No

Menu
00:00:00.000 : en:00:00:00.000
00:06:20.672 : en:00:06:20.672
00:11:52.879 : en:00:11:52.879
00:18:41.579 : en:00:18:41.579
00:24:55.703 : en:00:24:55.703
00:29:44.282 : en:00:29:44.282
00:35:15.697 : en:00:35:15.697
00:41:33.282 : en:00:41:33.282
00:46:32.873 : en:00:46:32.873
00:51:49.023 : en:00:51:49.023
00:55:37.834 : en:00:55:37.834
01:01:25.974 : en:01:01:25.974
01:07:16.783 : en:01:07:16.783
01:12:37.645 : en:01:12:37.645
01:19:55.249 : en:01:19:55.249
01:28:25.550 : en:01:28:25.550
01:36:56.644 : en:01:36:56.644
01:43:06.639 : en:01:43:06.639
01:47:59.473 : en:01:47:59.473
01:52:12.851 : en:01:52:12.851
Свернуть
 DJoKeR777 нравится это.
Не в сети
Профиль  
 Добавлено: 2014-03-03 13:51 (спустя 1 месяц 9 дней)
Аватара пользователя
Стаж: 4 года 11 месяцев
Сообщений: 25
Спасибок: 69
есть субтитры? (английские)
Не в сети
Профиль  
 Добавлено: 2014-03-03 23:47 (спустя 9 часов)
Кинокомментатор
Аватара пользователя
Стаж: 9 лет 1 месяц
Сообщений: 1332
Лайков: 54
лучше перевод русский) есть? будет?)
Не в сети
Профиль  
Начать новую темуОтветить на тему  [ Сообщений: 3 ] 
Вы не можете начинать темы
Вы не можете отвечать на сообщения
Вы не можете редактировать свои сообщения
Вы не можете удалять свои сообщения