Правила форума

Здесь находятся раздачи, на которых не было полного источника (сида) более месяца.
Вы можете вернуть релиз в соответствующий раздел, для этого напишите нам в специальной теме и встаньте на раздачу.
Новые релизы, повторяющие релизы в архиве, повторами не считаются.
Начать новую темуОтветить на тему  [ Сообщений: 2 ] 
Сообщения
 Добавлено: 2012-03-13 00:28
Стаж: 7 лет 4 месяца
Сообщений: 52
Спасибок: 64
Дети-самоубийцы / Demons Never Die

Изображение


Год выпуска: 2011
Страна: Великобритания
Жанр: ужасы
Продолжительность: 01:33:01
Перевод: Любительский (одноголосый закадровый)

Режиссёр: Арджун Роуз / Arjun Rose
В ролях: Роберт Шиэн, Эшли Уолтерс, Тулиса Контоcтавлос, Джейсон Маза, Регги Йэтс, Шаника Уоррен, Мерленд, Джейкоб Андерсон, Дженни Жак, Эмма Ригби
Описание: После смерти девушки Амбер, которая покончила с собой, ее друзья в порыве сострадания и солидарности создают и присоединяются к договору о совместном самоубийстве. Но вот незадача, те кто вошли в список начинают по одному умирать от руки некоего убийцы в маске. Дети-самоубийцы наконец-то понимают цену жизни, но не слишком ли поздно? Тем более жить им или не жить уже решают не они…


Качество: BDRip 720p (HAiDEAF)
Формат: MKV
Видео кодек: H.264
Аудио кодек: AC3 (Dolby Digital)
Видео: 1280 x 544; 24,00 fps; 5 219 Kbps
Аудио #1: Русский, AC3 5.1 384 Kbps 48,0 КГц(VO) [Любительский (одноголосый закадровый)]
Аудио #2: English, DTS 5.1 1536 Kbps 48,0 КГц(Оригинал)
Cкрытый текст
D:\HDFILMS\Demons.Never.Die.2011.720p.BDRip.Rus.Eng.mkv
General
Complete name : D:\HDFILMS\Demons.Never.Die.2011.720p.BDRip.Rus.Eng.mkv
Format : Matroska
File size : 4.62 GiB
Duration : 1h 33mn
Overall bit rate : 7 112 Kbps
Encoded date : UTC 2012-03-10 11:33:02
Writing application : mkvmerge v5.3.0 ('I could have danced') built on Feb 9 2012 10:38:07
Writing library : libebml v1.2.3 + libmatroska v1.3.0
Video #1
ID : 1
Format : AVC
Format/Info : Advanced Video Codec
Format profile : High@L4.1
Format settings, CABAC : Yes
Format settings, ReFrames : 5 frames
Muxing mode : Container profile=Unknown@4.1
Codec ID : V_MPEG4/ISO/AVC
Duration : 1h 33mn
Bit rate : 5 219 Kbps
Width : 1 280 pixels
Height : 544 pixels
Display aspect ratio : 2.35:1
Frame rate : 24.000 fps
Color space : YUV
Chroma subsampling : 4:2:0
Bit depth : 8 bits
Scan type : Progressive
Bits/(Pixel*Frame) : 0.312
Stream size : 3.30 GiB (71%)
Title : Demons Never Die 2011 LIMITED 720p BluRay x264-HAiDEAF
Writing library : x264 core 120 r2164 da19765
Encoding settings : cabac=1 / ref=5 / deblock=1:0:0 / analyse=0x3:0x2 / me=umh / subme=7 / psy=1 / psy_rd=1.00:0.00 / mixed_ref=1 / me_range=16 / chroma_me=1 / trellis=1 / 8x8dct=1 / cqm=0 / deadzone=21,11 / fast_pskip=1 / chroma_qp_offset=-2 / threads=12 / sliced_threads=0 / nr=0 / decimate=1 / interlaced=0 / bluray_compat=0 / constrained_intra=0 / bframes=3 / b_pyramid=2 / b_adapt=1 / b_bias=0 / direct=1 / weightb=0 / open_gop=0 / weightp=2 / keyint=240 / keyint_min=24 / scenecut=40 / intra_refresh=0 / rc=2pass / mbtree=0 / bitrate=5219 / ratetol=1.0 / qcomp=0.60 / qpmin=10 / qpmax=51 / qpstep=4 / cplxblur=20.0 / qblur=0.5 / ip_ratio=1.40 / pb_ratio=1.30 / aq=1:1.00
Language : English
Audio #2
ID : 2
Format : AC-3
Format/Info : Audio Coding 3
Mode extension : CM (complete main)
Codec ID : A_AC3
Duration : 1h 33mn
Bit rate mode : Constant
Bit rate : 384 Kbps
Channel(s) : 6 channels
Channel positions : Front: L C R, Side: L R, LFE
Sampling rate : 48.0 KHz
Bit depth : 16 bits
Stream size : 255 MiB (5%)
Title : VO AC3 5.1 384 kbps
Language : Russian
Audio #3
ID : 3
Format : DTS
Format/Info : Digital Theater Systems
Codec ID : A_DTS
Duration : 1h 33mn
Bit rate mode : Constant
Bit rate : 1 510 Kbps
Channel(s) : 6 channels
Channel positions : Front: L C R, Side: L R, LFE
Sampling rate : 48.0 KHz
Bit depth : 24 bits
Stream size : 1 004 MiB (21%)
Title : Original DTS 1536 kbps
Language : English
Свернуть
Скриншоты
Изображение
Изображение
Изображение
Изображение
Свернуть


Раздача группы: Изображение


Последний раз редактировалось F.C.Sh.P. 2012-03-13 22:37, всего редактировалось 2 раз(а).
Не в сети
Профиль  
 Добавлено: 2012-03-13 08:20 (спустя 7 часов)
Аватара пользователя
Стаж: 8 лет 3 месяца
Возраст: 43
Сообщений: 3290
Спасибок: 21012
Лайков: 3
F.C.Sh.P.
напоминаю про теги. Это не DVD 5, а BDRip 720p
Внимание: Для DVD и HD-разделов необходимы развернутые технические данные:
Для DVD: Отчет DVDInfo (под спойлером)
DVDInfo

Cкрытый текст
Изображение
Свернуть
Назначение - быстрое получение информации о DVD-диске или отдельных его title-set'ах.
Использование:
- запустить программу и в открывшемся окне выбора директории выбрать VIDEO_TS диру на диске или на харде, где находится VIDEO_TS.IFO.
- дать в командной строке параметром путь к директории, где лежит VIDEO_TS.IFO на диске или на харде
- дать в командной строке полный путь к любому IFO-файлу
- воспользоваться расширением эксплорера и выбрать новый пункт в выпадающем по правой кнопке меню файла.
- ассоциировать в TotalCommander-е с расширением IFO на кнопку Alt+F3 (ну или любую другую в любом другом файл-менеджере)
- перенаправить информацию в текстовый файл, задав определенные параметры в командной строке (список параметров выдается если задать параметр /?) и поставить в конце ">file.txt". [Внимание! Программа ничего не выдает на вызывающую ее консоль, это не консольная аппликация. Данный режим только для перенаправления информации в файл.]
- использовать информационный модуль, сделанный в виде ActiveX-компоненты и который собственно и вытаскивает инфу из файлов, в своей собственной программе smileold.gif

Если программа получит путь к VIDEO_TS.IFO, то покажет инфу по всем найденным VTS, относящемся к выбранному ДВД. Если же к конкретному VTS.IFO - то только о нем.

Программа работает только с IFO-файлами, не делая анализа VOB-ов, поэтому информация типа делеев дорожеи или других подробностей, нее относящихся к IFO - не выдает. Короче то, что она показывает, можно получить и в IfoEdit-е winkold.gif.

Обновление версии программы до 1.1.0!
* Окно программы стало Drag-n-Drop-ным, то есть принимает дроп-нутый на него линк на файл.
* Окно программы опционально может быть "Always on top".
* Сохраняется последнее местоположение окна программы и в следующий раз оно открывается на том же месте (опционально).
* Максимальное количество возможных PGC увеличено с 25 до 100.
* Автоматически из списка VTS выбирается тот, который содержит максимально длинный видеофрагмент.
* Показываются VTS PUOs (Prohibited User Operations - если они имеются конечно).
* Для каждого VTS показываются длины входящих в него PGC (если их больше одного).
* Исправлено некорректное определение DTS дорожки.
* Более корректно показывается количество аудио и видеодорожек (в тех сборках, которые сделаны с несоблюдением соответствия количества в разных IFO файлах).
* Исправлено - не открывалось окно выбора при нажатии Ctrl+O.
* Изменено - при отказе от первоначального выбора диска/директории окно закрывалось, теперь остается открытым с отсутствующей информацией.

Скачать с офсайта
Свернуть

Для HD: Отчет BDInfo→ (после нажатия кнопки «scan bitrates» и окончания сканирования) или MediaInfo→ ( весь текст из режима view (вид) → text (текст).) (под спойлером)
Исправьте пожалуйста :)
_________________
Изображение
Не в сети
Профиль  
Начать новую темуОтветить на тему  [ Сообщений: 2 ] 
Вы не можете начинать темы
Вы не можете отвечать на сообщения
Вы не можете редактировать свои сообщения
Вы не можете удалять свои сообщения