Правила форума

Здесь находятся раздачи, на которых не было полного источника (сида) более месяца.
Вы можете вернуть релиз в соответствующий раздел, для этого напишите нам в специальной теме и встаньте на раздачу.
Новые релизы, повторяющие релизы в архиве, повторами не считаются.
Начать новую темуОтветить на тему  [ Сообщений: 4 ] 
Сообщения
 Добавлено: 2011-11-02 19:47
Модератор
Аватара пользователя
Стаж: 8 лет 1 месяц
Сообщений: 1991
Спасибок: 129864
Лайков: 20
Дети шпионов 4D / Spy Kids: All the Time in the World in 4D


«Первый фильм в формате 4D»



Изображение
Год выпуска: 2011
Страна: Изображение США
Жанр: фантастика, боевик, комедия, приключения, семейный
Продолжительность:
01:27:45

Перевод: Профессиональный (полное дублирование) [Звук с TS]

Режиссер: Роберт Родригес
Сценарий: Роберт Родригес
Продюсер: Элизабет Авеллан, Роберт Родригес, Джордж Хуанг, Том Пропер, Ребекка Родригез
Оператор: Джимми Линдси, Роберт Родригес
Композитор: Роберт Родригес, Карл Тиль

В ролях:
Джессика Альба (Marissa Wilson), Джоэль МакХэйл (Wilbur Wilson), Алекса Вега (Carmen Cortez), Дэрил Сабара (Juni Cortez), Роуэн Бланчард (Rebecca Wilson), Мэйсон Кук (Cecil Wilson), Джереми Пивен (Danger D'Amo / Tick Tock / Time Keeper), Дэнни Трехо (Uncle Machete), Белль Солорзано (Spy Baby), Дженни Солорзано (Spy Baby), Рики Джервэйс (Argonaut, озвучка), Эльмо (Argonaut)
Дублёры: Жанна Никонова (Marissa Wilson) (Marissa Wilson), Вероника Саркисова (Carmen Cortez) (Carmen Cortez), Лиза Мартиросова (Rebecca Wilson) (Rebecca Wilson)

Описание: Брат и сестра поневоле должны стать крутыми шпионами, чтобы помешать мечтающему о мировом господстве злодею, и выручить из беды собственную мачеху - секретного суперагента, удалившегося на покой.


Изображение: 3.496 (2 260)
Изображение: 2.80 (2 757)

MPAA: Изображение - Рекомендуется присутствие родителей

Доп. Информация

Бюджет: $27 000 000
Сборы в США: $38 286 443
Сборы в России: $7 892 157
Сборы в мире: $70 548 066
Мировая премьера: 18 августа 2011
Изображение Релиз на DVD: Декабрь 2011, «Новый Диск»
Изображение Релиз на Blu-ray: Декабрь 2011, «Новый Диск»

Свернуть


Качество: BDRip 720p

Формат: MKV
Видео: AVC; 1280x720 (16:9); 5662 Kbps; 23,976 fps; 0,256 bpp
Аудио №1: Russian; AC3; 256 Kbps; CBR; 2 ch; 16 bit
Аудио №2: English; DTS; 1509 Kbps; CBR; 6 ch; 24 bit
Изображение


Знаете ли Вы, что...
  • Посетители кинотеатров в Северной Америке и России перед сеансом получат специальную карточку, на которую нанесены пахучие вещества. Всего будет 8 «ячеек», которые нужно стереть в определенный момент фильма. Зрителям подскажут, когда это сделать. На экране появятся цифры, а зрители должны будут стирать соответствующий защитный слой на своих карточках и чтобы узнать, какой запах ощущают герои картины. Новое приспособление решили назвать «Аромаскоуп».
Свернуть
BDInfo

General
UniqueID : 249901063972150051135954413240408141755 (0xBC0131B8A6F86F42A89960D6A910EFBB)
Complete name : Deti.shpionov.4.2011.Dt.BDRip.720p.mkv
Format : Matroska
File size : 4.54 GiB
Duration : 1h 27mn
Overall bit rate : 7 406 Kbps
Movie name : Spy Kids: All the Time in the World in 4D (2011)
Encoded date : UTC 2011-11-02 07:44:13
Writing application : mkvmerge v4.9.1 ('Ich will') сборка от Jul 11 2011 23:53:15
Writing library : libebml v1.2.1 + libmatroska v1.1.1

Video
ID : 1
Format : AVC
Format/Info : Advanced Video Codec
Format profile : High@L4.1
Format settings, CABAC : Yes
Format settings, ReFrames : 5 frames
Codec ID : V_MPEG4/ISO/AVC
Duration : 1h 27mn
Bit rate : 5 662 Kbps
Width : 1 280 pixels
Height : 720 pixels
Display aspect ratio : 16:9
Frame rate : 23.976 fps
Color space : YUV
Chroma subsampling : 4:2:0
Bit depth : 8 bits
Scan type : Progressive
Bits/(Pixel*Frame) : 0.256
Stream size : 3.37 GiB (74%)
Title : Spy Kids: All the Time in the World in 4D (2011)
Writing library : x264 core 119 r2106 07efeb4
Encoding settings : cabac=1 / ref=5 / deblock=1:0:0 / analyse=0x3:0x113 / me=umh / subme=8 / psy=1 / psy_rd=1.00:0.20 / mixed_ref=1 / me_range=16 / chroma_me=1 / trellis=1 / 8x8dct=1 / cqm=0 / deadzone=21,11 / fast_pskip=1 / chroma_qp_offset=-3 / threads=12 / sliced_threads=0 / nr=0 / decimate=1 / interlaced=0 / bluray_compat=0 / constrained_intra=0 / bframes=3 / b_pyramid=2 / b_adapt=1 / b_bias=0 / direct=3 / weightb=1 / open_gop=0 / weightp=2 / keyint=250 / keyint_min=23 / scenecut=40 / intra_refresh=0 / rc_lookahead=40 / rc=2pass / mbtree=1 / bitrate=5662 / ratetol=1.0 / qcomp=0.60 / qpmin=0 / qpmax=69 / qpstep=4 / cplxblur=20.0 / qblur=0.5 / ip_ratio=1.40 / aq=1:1.00
Language : English

Audio #1
ID : 2
Format : AC-3
Format/Info : Audio Coding 3
Mode extension : CM (complete main)
Codec ID : A_AC3
Duration : 1h 27mn
Bit rate mode : Constant
Bit rate : 256 Kbps
Channel(s) : 2 channels
Channel positions : Front: L R
Sampling rate : 48.0 KHz
Bit depth : 16 bits
Compression mode : Lossy
Stream size : 161 MiB (3%)
Title : DD 2.0 @ 256 Kbps - Dub, TS
Language : Russian

Audio #2
ID : 3
Format : DTS
Format/Info : Digital Theater Systems
Codec ID : A_DTS
Duration : 1h 27mn
Bit rate mode : Constant
Bit rate : 1 510 Kbps
Channel(s) : 6 channels
Channel positions : Front: L C R, Side: L R, LFE
Sampling rate : 48.0 KHz
Bit depth : 24 bits
Compression mode : Lossy
Stream size : 948 MiB (20%)
Title : DTS 5.1 @ 1536 Kbps
Language : English

Menu
00:00:00.000 : en:00:00:00.000
00:06:43.778 : en:00:06:43.778
00:08:59.289 : en:00:08:59.289
00:15:08.491 : en:00:15:08.491
00:20:19.552 : en:00:20:19.552
00:29:47.119 : en:00:29:47.119
00:34:02.082 : en:00:34:02.082
00:42:37.680 : en:00:42:37.680
00:47:06.032 : en:00:47:06.032
00:52:49.917 : en:00:52:49.917
00:58:30.257 : en:00:58:30.257
01:04:22.984 : en:01:04:22.984
01:09:17.570 : en:01:09:17.570
01:16:46.227 : en:01:16:46.227
01:22:36.451 : en:01:22:36.451
Свернуть
Скриншоты

Изображение
Изображение
Изображение
Свернуть

_________________
Себе ты можешь не качать, но раздавать другим обязан!
Не в сети
Профиль  
 Добавлено: 2011-11-02 21:47 (спустя 1 час 59 минут)
Аватара пользователя
Стаж: 7 лет 8 месяцев
Сообщений: 40
а почему у тебя скрины из реда?
Не в сети
Профиль  
 Добавлено: 2011-11-02 23:31 (спустя 1 час 44 минуты)
Модератор
Аватара пользователя
Стаж: 8 лет 1 месяц
Сообщений: 1991
Спасибок: 129864
Лайков: 20
зилибоба
Да, спасибо, уже заменил.
_________________
Себе ты можешь не качать, но раздавать другим обязан!
Не в сети
Профиль  
 Добавлено: 2011-11-05 22:28 (спустя 2 дня 22 часа)
Аватара пользователя
Стаж: 8 лет 3 месяца
Возраст: 43
Сообщений: 3290
Спасибок: 21012
Лайков: 3
viewtopic.php?f=1750&t=435142
_________________
Изображение
Не в сети
Профиль  
Начать новую темуОтветить на тему  [ Сообщений: 4 ] 
Вы не можете начинать темы
Вы не можете отвечать на сообщения
Вы не можете редактировать свои сообщения
Вы не можете удалять свои сообщения