Правила форума

Здесь находятся раздачи, на которых не было полного источника (сида) более месяца.
Вы можете вернуть релиз в соответствующий раздел, для этого напишите нам в специальной теме и встаньте на раздачу.
Новые релизы, повторяющие релизы в архиве, повторами не считаются.
Начать новую темуОтветить на тему  [ 1 сообщение ] 
Сообщения
 Добавлено: 2011-03-02 16:30
Top-releaser
Аватара пользователя
Стаж: 7 лет 3 месяца
Возраст: 25
Сообщений: 1036
Спасибок: 2694
Лайков: 9
Детки в порядке / The Kids Are All Right

Изображение



Год выхода: 2010
Страна: США
Cлоган: «Nic and Jules had the perfect family, until they met the man who made it all possible.»

Жанр: драма, комедия
Продолжительность: 01:46:16
Перевод: Профессиональное (многоголосое) [лицензия]

Режиссер: Лиза Холоденко
Сценарий: Лиза Холоденко, Стюарт Блумберг
Продюсер: Селин Рэттрэй, Гари Гилберт, Даниела Сото-Таплин
Оператор: Игорь Жадю-Лилло
Композитор: Картер Бёруэлл

В ролях: Аннетт Бенинг, Джулианна Мур, Марк Руффало, Миа Васиковска, Джош Хатчерсон, Йайа ДаКоста, Кунал Шарма, Эдди Хэсселл, Зося Мамет, Хоакин Гарридо

Описание: Комедия о сумасшедшей калифорнийской семейке, в которой — две «мамочки» Ник и Джулс растят двух детей-подростков, появившихся на свет путем искусственного оплодотворения. Пятнадцатилетний Лейзер упрашивает старшую сестру Джони, которой только что исполнилось восемнадцать, помочь ему отыскать их биологического отца. Мальчику очень не хватает настоящего мужского общения. Джони без особого энтузиазма обещает помочь брату.
В результате неожиданно обнаружившийся папаша решает приударить за одной из «мамочек», и знакомство деток с родителями, да и знакомство самих родителей, оборачивается чередой нелепых, смешных, а иногда и грустных ситуаций.


KinoPoisk.ru: 6.872
IMDb.com: 7.3/10

pаздача группы:Изображение

Качество: BDRip 1080p R5
Формат: MKV

Видео: MPEG4 Video (H264) 1920x1040 23.98fps
Аудио 1: Russian Dolby AC3 48000Hz 6ch
Аудио 2: English DTS 48000Hz 6ch
Subtitle: Russian/English UTF-8

Изображение

MediaInfo
General
Unique ID : 196098253633394449085773045155784017732 (0x9387265DF9DA348D955F1913EEABC744)
Complete name : G:\The.Kids.Are.All.Right.2010.BDRip.1080p.mkv
Format : Matroska
File size : 8.23 GiB
Duration : 1h 46mn
Overall bit rate : 11.1 Mbps
Encoded date : UTC 2011-03-02 03:45:42
Writing application : mkvmerge v3.4.0 ('Rapunzel') сборка от May 15 2010 09:38:20
Writing library : libebml v0.8.0 + libmatroska v0.9.0

Video
ID : 1
Format : AVC
Format/Info : Advanced Video Codec
Format profile : High@L4.0
Format settings, CABAC : Yes
Format settings, ReFrames : 4 frames
Codec ID : V_MPEG4/ISO/AVC
Duration : 1h 46mn
Bit rate : 9 188 Kbps
Width : 1 920 pixels
Height : 1 040 pixels
Display aspect ratio : 16:9
Frame rate : 23.976 fps
Color space : YUV
Chroma subsampling : 4:2:0
Bit depth : 8 bits
Scan type : Progressive
Bits/(Pixel*Frame) : 0.192
Stream size : 6.66 GiB (81%)
Writing library : x264 core 107 r1745 4785e8e
Encoding settings : cabac=1 / ref=4 / deblock=1:0:0 / analyse=0x3:0x113 / me=umh / subme=8 / psy=1 / psy_rd=1.00:0.20 / mixed_ref=1 / me_range=16 / chroma_me=1 / trellis=1 / 8x8dct=1 / cqm=0 / deadzone=21,11 / fast_pskip=1 / chroma_qp_offset=-3 / threads=12 / sliced_threads=0 / nr=0 / decimate=1 / interlaced=0 / constrained_intra=0 / bframes=3 / b_pyramid=2 / b_adapt=1 / b_bias=0 / direct=3 / weightb=1 / open_gop=0 / weightp=2 / keyint=250 / keyint_min=23 / scenecut=40 / intra_refresh=0 / rc_lookahead=40 / rc=2pass / mbtree=1 / bitrate=9188 / ratetol=1.0 / qcomp=0.60 / qpmin=10 / qpmax=51 / qpstep=4 / cplxblur=20.0 / qblur=0.5 / ip_ratio=1.40 / aq=1:1.00
Language : English

Audio #1
ID : 2
Format : AC-3
Format/Info : Audio Coding 3
Mode extension : CM (complete main)
Codec ID : A_AC3
Duration : 1h 46mn
Bit rate mode : Constant
Bit rate : 384 Kbps
Channel(s) : 6 channels
Channel positions : Front: L C R, Side: L R, LFE
Sampling rate : 48.0 KHz
Bit depth : 16 bits
Compression mode : Lossy
Stream size : 292 MiB (3%)
Language : Russian

Audio #2
ID : 3
Format : DTS
Format/Info : Digital Theater Systems
Codec ID : A_DTS
Duration : 1h 46mn
Bit rate mode : Constant
Bit rate : 1 510 Kbps
Channel(s) : 6 channels
Channel positions : Front: L C R, Side: L R, LFE
Sampling rate : 48.0 KHz
Bit depth : 24 bits
Compression mode : Lossy
Stream size : 1.12 GiB (14%)
Language : English

Text #1
ID : 4
Format : UTF-8
Codec ID : S_TEXT/UTF8
Codec ID/Info : UTF-8 Plain Text
Language : Russian

Text #2
ID : 5
Format : UTF-8
Codec ID : S_TEXT/UTF8
Codec ID/Info : UTF-8 Plain Text
Language : English


Свернуть
Скриншоты
Изображение
Изображение
Изображение
Изображение
Изображение
Свернуть
Не в сети
Профиль  
Начать новую темуОтветить на тему  [ 1 сообщение ] 
Вы не можете начинать темы
Вы не можете отвечать на сообщения
Вы не можете редактировать свои сообщения
Вы не можете удалять свои сообщения