Правила форума

Здесь находятся раздачи, на которых не было полного источника (сида) более месяца.
Вы можете вернуть релиз в соответствующий раздел, для этого напишите нам в специальной теме и встаньте на раздачу.
Новые релизы, повторяющие релизы в архиве, повторами не считаются.
Начать новую темуОтветить на тему  [ Сообщений: 3 ] 
Сообщения
 Добавлено: 2011-04-27 13:16
Top-releaser
Аватара пользователя
Стаж: 7 лет 3 месяца
Возраст: 25
Сообщений: 1036
Спасибок: 2694
Лайков: 9
Девять / Nine

«Эффектные, роскошные и сексуальные!»

Изображение



Год выхода: 2009
Страна: США, Италия

Жанр: мюзикл, драма, мелодрама
Продолжительность: 01:58:32
Перевод: Профессиональный [лицензия]

Режиссер: Роб Маршалл
Сценарий: Майкл Толкин, Энтони Мингелла, Артур Л. Копит
Продюсер: Роб Маршалл, Джон ДеЛюка, Марк Э. Платт
Оператор: Дион Биби
Композитор: Андреа Гуэрра

В ролях: Дэниэл Дэй-Льюис, Марион Котийяр, Пенелопа Крус, Софи Лорен, Кейт Хадсон, Джуди Денч, Николь Кидман, Стэйси Фергюсон, Сандро Дори, Рикки Тоньяцци

Описание: Красть поцелуи, быть итальянцем, брать жизнь горстями — вот кредо Гвидо Контини, известного режиссера. Всю жизнь его окружают шикарные женщины — жена, любовницы, муза, агент. Он востребован. Он идет к цели по трупам. Но почему же он не может завершить съемки своего нового фильма? Он ищет разгадку там, где ему всего привычнее — в постели у женщин, но душа его опустошается все больше и больше. Что станет ключом от вожделенного рая творчества, кто вернет звуки музыки, которая давно звучит в его сердце?


Бюджет: $80 000 000
Сборы в США: $19 676 965
Сборы в мире: + $32 453 926 = $52 130 891
Сборы в России: $99 079
Зрители: Изображение 1.83 млн, Изображение 304 тыс., Изображение 214.3 тыс.,

Рейтинг MPAA Изображение - Детям до 13 лет просмотр не желателен

KinoPoisk.ru: 6.537
IMDb.com: 6.0/10

Pаздача группы:Изображение

Качество: BDRip 720p
Формат: Mkv

Видео: MPEG4 Video (H264) 1280x534 23.98fps
Аудио 1: Russian: AC3, 48.0 KHz, 448 kb/s (6 ch)
Аудио 2: English: DTS, 48.0 KHz, 1510 kb/s (6 ch)
Subtitle: Russian, English Utf-8

Изображение

MediaInfo
General
Unique ID : 187863504290094634704071201255021021935 (0x8D5531E0D61ED28BA2CFC013A2570AEF)
Complete name : H:\ReLease\Nine.BDRip.720p.mkv
Format : Matroska
File size : 6.87 GiB
Duration : 1h 58mn
Overall bit rate : 8 294 Kbps
Encoded date : UTC 2011-04-26 22:50:30
Writing application : mkvmerge v4.5.0 ('Speed of Light') сборка от Feb 1 2011 02:10:32
Writing library : libebml v1.2.0 + libmatroska v1.1.0

Video
ID : 1
Format : AVC
Format/Info : Advanced Video Codec
Format profile : High@L4.1
Format settings, CABAC : Yes
Format settings, ReFrames : 12 frames
Codec ID : V_MPEG4/ISO/AVC
Duration : 1h 58mn
Bit rate : 6 336 Kbps
Width : 1 280 pixels
Height : 534 pixels
Display aspect ratio : 2.35:1
Frame rate : 23.976 fps
Color space : YUV
Chroma subsampling : 4:2:0
Bit depth : 8 bits
Scan type : Progressive
Bits/(Pixel*Frame) : 0.387
Stream size : 5.11 GiB (74%)
Writing library : x264 core 92 r1510 33d382a
Encoding settings : cabac=1 / ref=12 / deblock=1:-3:-3 / analyse=0x3:0x133 / me=umh / subme=9 / psy=1 / psy_rd=0.90:0.00 / mixed_ref=1 / me_range=32 / chroma_me=1 / trellis=2 / 8x8dct=1 / cqm=0 / deadzone=21,11 / fast_pskip=1 / chroma_qp_offset=-2 / threads=24 / sliced_threads=0 / nr=0 / decimate=1 / interlaced=0 / constrained_intra=0 / bframes=6 / b_pyramid=0 / b_adapt=2 / b_bias=0 / direct=3 / wpredb=1 / wpredp=2 / keyint=250 / keyint_min=25 / scenecut=40 / intra_refresh=0 / rc_lookahead=40 / rc=2pass / mbtree=1 / bitrate=6336 / ratetol=1.0 / qcomp=0.60 / qpmin=10 / qpmax=51 / qpstep=4 / cplxblur=20.0 / qblur=0.5 / ip_ratio=1.40 / aq=1:0.80
Language : English

Audio #1
ID : 2
Format : AC-3
Format/Info : Audio Coding 3
Mode extension : CM (complete main)
Codec ID : A_AC3
Duration : 1h 58mn
Bit rate mode : Constant
Bit rate : 448 Kbps
Channel(s) : 6 channels
Channel positions : Front: L C R, Side: L R, LFE
Sampling rate : 48.0 KHz
Bit depth : 16 bits
Compression mode : Lossy
Stream size : 380 MiB (5%)
Language : Russian

Audio #2
ID : 3
Format : DTS
Format/Info : Digital Theater Systems
Codec ID : A_DTS
Duration : 1h 58mn
Bit rate mode : Constant
Bit rate : 1 510 Kbps
Channel(s) : 6 channels
Channel positions : Front: L C R, Side: L R, LFE
Sampling rate : 48.0 KHz
Bit depth : 24 bits
Compression mode : Lossy
Stream size : 1.25 GiB (18%)
Language : English

Text #1
ID : 4
Format : UTF-8
Codec ID : S_TEXT/UTF8
Codec ID/Info : UTF-8 Plain Text
Language : Russian

Text #2
ID : 5
Format : UTF-8
Codec ID : S_TEXT/UTF8
Codec ID/Info : UTF-8 Plain Text
Language : English
Свернуть
Скриншоты
Изображение
Изображение
Изображение
Изображение
Изображение
Изображение
Свернуть
Не в сети
Профиль  
 Добавлено: 2011-06-13 16:04 (спустя 1 месяц 16 дней)
Аватара пользователя
Стаж: 9 лет 2 месяца
Сообщений: 19
Спасибок: 25
Раздайте, плизз
Не в сети
Профиль  
 Добавлено: 2012-10-20 21:08 (спустя 1 год 4 месяца)
Русские витязи
Аватара пользователя
Стаж: 6 лет 10 месяцев
Возраст: 30
Сообщений: 485
Лайков: 4
Раздайте пжлста
Не в сети
Профиль  
Начать новую темуОтветить на тему  [ Сообщений: 3 ] 
Вы не можете начинать темы
Вы не можете отвечать на сообщения
Вы не можете редактировать свои сообщения
Вы не можете удалять свои сообщения