Правила форума

Здесь находятся раздачи, на которых не было полного источника (сида) более месяца.
Вы можете вернуть релиз в соответствующий раздел, для этого напишите нам в специальной теме и встаньте на раздачу.
Новые релизы, повторяющие релизы в архиве, повторами не считаются.
Начать новую темуОтветить на тему  [ Сообщений: 5 ] 
Сообщения
 Добавлено: 2012-08-16 23:08
Аватара пользователя
Стаж: 5 лет 11 месяцев
Возраст: 26
Сообщений: 36
Спасибок: 401
Лайков: 1
Изображение

Диктатор / The Dictator



Год выпуска: 2012
Страна: США (Four by Two Films, Kanzaman S.A.)
Жанр: Комедия
Продолжительность: 01:23:18
Перевод: Дублированный [Чистый Звук]
Режиссёр: Ларри Чарльз
Сценарист: Саша Барон Коэн, Алек Берг, Дэвид Мэндел, Джефф Шеффер.
Продюсер: Саша Барон Коэн 2. Алек Берг 3. Дэвид Мэндел 4. Скотт Рудин 5. Джефф Шеффер 6. Тодд Шульман ... сопродюсер 7. Мэри-Джо Уинклер ... исполнительный продюсер 8. Питер Бейнхэм ... исполнительный продюсер 9. Энтони Хайнс ... исполнительный продюсер 10. Дэн Мазер ... исполнительный продюсер 11. Адам МакКей
Оператор: Лоуренс Шер
Композитор: Эрран Барон Коэн
В ролях: Саша Барон Коэн, Анна Фэрис, Бен Кингсли, Джейсон Ман*censored*с, Саид Бадрия, Мишель Берг, Роки Ситрон, Лиам Кампора, Аасиф Мандви, Ризван Манжи, Рик Чэмберс, Эльсайед Мохамед, Адиль Ахтар, Орасио Санс, Елена Гуд, Назанин Хома, Доун Зимняк, Виктория Белтран, Даниэль Бургио, Доминик ДиКаприо, Аджа Фрари, Фред Меламед, Куко Усин
Описание: Героическая история диктатора, который рискует своей жизнью, чтобы ни в коем случае не допустить демократию в свою столь любовно угнетаемую страну
Качество: Blu-Ray Remux 1080p
Формат: 1920x1080, 23.976 fps, 29,5 Мbps
Видео кодек: MPEG-4 AVC
Видео: 1920x1080, 23.976 fps, 29,5 Мbps
Аудио #1: Russian: AC3, 448 Kbps (6 ch)
Аудио #2: English: DTS, 1510 Kbps (6 ch)
Субтитры: Английские
MediaInfo
Общее
Уникальный идентификатор : 195294371828994518703679781359765126208 (0x92EC53EF2122700CB70E6014EF177C40)
Полное имя : The.Dictator.2012.MPEG-4.AVC. BDRemux.1080p.mkv
Формат : Matroska
Версия формата : Version 2
Размер файла : 18,7 Гбайт
Продолжительность : 1 ч. 23 м.
Режим общего битрейта : Переменный
Общий поток : 32,1 Мбит/сек
Дата кодирования : UTC 2012-08-14 19:40:16
Программа кодирования : mkvmerge v5.4.0 ('Piper') built on Mar 10 2012 13:34:39
Библиотека кодирования : libebml v1.2.3 + libmatroska v1.3.0

Видео
Идентификатор : 1
Формат : AVC
Формат/Информация : Advanced Video Codec
Профиль формата : High@L4.1
Параметр CABAC формата : Да
Параметр ReFrames формата : 2 кадра
Параметр GOP формата : M=1, N=10
Режим смешивания : Container profile=Unknown@0.0
Идентификатор кодека : V_MPEG4/ISO/AVC
Продолжительность : 1 ч. 23 м.
Вид битрейта : Переменный
Битрейт : 29,5 Мбит/сек
Ширина : 1920 пикселей
Высота : 1080 пикселей
Соотношение сторон : 16:9
Частота кадров : 23,976 кадра/сек
Цветовое пространство : YUV
Субдискретизация насыщенности : 4:2:0
Битовая глубина : 8 бит
Тип развёртки : Прогрессивная
Бит/(Пиксели*Кадры) : 0.594
Размер потока : 17,2 Гбайт (92%)
Язык : English
Default : Да
Forced : Нет

Аудио #1
Идентификатор : 2
Формат : AC-3
Формат/Информация : Audio Coding 3
Расширение режима : CM (complete main)
Параметр Endianness формата : Big
Идентификатор кодека : A_AC3
Продолжительность : 1 ч. 23 м.
Вид битрейта : Постоянный
Битрейт : 448 Кбит/сек
Каналы : 6 каналов
Расположение каналов : Front: L C R, Side: L R, LFE
Частота : 48,0 КГц
Битовая глубина : 16 бит
Метод сжатия : С потерями
Размер потока : 267 Мбайт (1%)
Язык : Russian
Default : Да
Forced : Нет

Аудио #2
Идентификатор : 3
Формат : DTS
Формат/Информация : Digital Theater Systems
Идентификатор кодека : A_DTS
Продолжительность : 1 ч. 23 м.
Вид битрейта : Постоянный
Битрейт : 1510 Кбит/сек
Каналы : 6 каналов
Расположение каналов : Front: L C R, Side: L R, LFE
Частота : 48,0 КГц
Битовая глубина : 24 бит
Метод сжатия : С потерями
Размер потока : 900 Мбайт (5%)
Язык : English
Default : Нет
Forced : Нет

Меню
00:00:00.000 : en:
00:07:11.638 : en:
00:11:14.214 : en:
00:16:48.465 : en:
00:21:18.902 : en:
00:26:36.927 : en:
00:32:15.056 : en:
00:38:15.751 : en:
00:42:37.387 : en:
00:48:46.464 : en:
00:55:37.792 : en:
01:01:48.704 : en:
01:06:46.460 : en:
01:13:32.240 : en:
Свернуть

Рейтинг MPAA: Рейтинг R (Подростки до 17 лет допускаются на фильм только в сопровождении одного из родителей)
Мировая премьера: 16 мая 2012
Премьера в России: 17 мая 2012
Бюджет: $65 000 000
Кассовые сборы: $166 414 720
Изображение 6.883
Сэмпл: : http://multi-up.com/747802

Скриншоты
Изображение
Изображение
Изображение

Свернуть

Знаете ли Вы, что...
В эпизоде №100 (сезон 17) «Ежедневного шоу» c Джоном Стюартом раскрывается, что первое имя Аладина - Шабазз.
Фотографии возлюбленных Аладина, в дополнение к Меган Фокс, включают в себя, в том числе и Линдси Лохан, Холли Берри, Эллен ДеДженерес и Арнольда Шварценеггера.
На самом деле Аладин и Надал на вертолётной экскурсии разговаривают на иврите, а не на арабском языке.
В сцене, где Аладин развлекается с девушками, они оголяются по пояс. В следующей сцене все девушки кроме одной одеты.
Дополнительные сцены во время финальных титров включают в себя так же и моменты создания фильма.
Вымышленная Республика Вадия расположена там же, где находится реальная страна Эритрея.
Саша Барон Коэн посетил 84-ю церемонию вручения премии «Оскар» в образе Аладина, он был одет в тот же костюм, что и в фильме и сопровождался своими «охранниками-девственницами». Во время интервью ничего не подозревающему Райану Сикресту он держал урну, в которой, как он утверждал, находился прах покойного северокорейского диктатора Ким Чен Ира. А дальше Коэн высыпал пепел прямо на смокинг Сикресту.
В рекламных снимках главного героя на белом фоне, он носит орденские ленты, среди которых:
• Медаль за «Службу в Антарктике» (третий ряд, крайняя левая).
• Медаль «Освобождения Кувейта» (седьмой ряд, крайняя левая).
• Медаль за «Защиту Филиппинских островов во Второй Мировой войне» (пятый ряд, крайняя левая) и медаль за «Освобождение Филиппин» (пятый ряд, вторая слева).
• Одна похожа на Бельгийскую медаль «За боевые заслуги» (пятый ряд, крайняя правая).
• Французская медаль «За боевые заслуги» (пятый ряд, вторая справа). Есть как минимум два повторения: 16 ряд, справа с краю та же медаль, что и в 14 ряду, вторая справа, и в 11 ряду, слева с краю. На рекламном постере к фильму, по крайней мере, одна медаль (Бельгийская медаль «За боевые заслуги») изменена, и есть повторения целыми группами: 11 и 12 ряды повторяются так же, как и 18 и 19.
У Зои карие глаза, но на огромном плакате, который Аладин разместил в магазине, они голубые.
Когда Адмирал-генерал Аладин спускается по тросу, то сначала он держится за ручки двумя руками. В следующем кадре он появляется висящим на проводе, без объяснения того как это произошло.
Свернуть


Последний раз редактировалось creat!ve 2012-08-17 23:16, всего редактировалось 9 раз(а).
Не в сети
Профиль  
 Добавлено: 2012-08-17 00:27 (спустя 1 час 18 минут)
Руководитель релиз-группы
Аватара пользователя
Стаж: 7 лет 4 месяца
Возраст: 31
Сообщений: 3407
Спасибок: 46728
Лайков: 5
creat!ve
Релиз в разделе Кино должен содержать
читаем, исправляем..
Не в сети
Профиль  
 Добавлено: 2012-08-17 16:25 (спустя 15 часов)
Аватара пользователя
Стаж: 5 лет 11 месяцев
Возраст: 26
Сообщений: 36
Спасибок: 401
Лайков: 1
испрваил
_________________
Изображение
Изображение
Изображение
Изображение
Не в сети
Профиль  
 Добавлено: 2012-08-17 19:07 (спустя 2 часа 42 минуты)
Руководитель релиз-группы
Аватара пользователя
Стаж: 7 лет 4 месяца
Возраст: 31
Сообщений: 3407
Спасибок: 46728
Лайков: 5
creat!ve
Для HD и HQRip-ов необходимы скриншоты в формате PNG, для остальных форматов PNG так же рекомендуется.
Не в сети
Профиль  
 Добавлено: 2012-08-18 11:51 (спустя 16 часов)
Аватара пользователя
Стаж: 7 лет 2 месяца
Сообщений: 27
Спасибок: 1
Лайков: 1
чем отличается от предидущей золотой раздачи?
я не понимаю зачем гигов на 10 больше выкладывать???
Не в сети
Профиль  
Начать новую темуОтветить на тему  [ Сообщений: 5 ] 
Вы не можете начинать темы
Вы не можете отвечать на сообщения
Вы не можете редактировать свои сообщения
Вы не можете удалять свои сообщения