Правила форума

Здесь находятся раздачи, на которых не было полного источника (сида) более месяца.
Вы можете вернуть релиз в соответствующий раздел, для этого напишите нам в специальной теме и встаньте на раздачу.
Новые релизы, повторяющие релизы в архиве, повторами не считаются.
Начать новую темуОтветить на тему  [ Сообщений: 4 ] 
Сообщения
 Добавлено: 2014-07-21 23:39
DVD Release Group
Аватара пользователя
Стаж: 7 лет 1 месяц
Сообщений: 3544
Спасибок: 246956
Лайков: 1018
Дивергент

Divergent


Изображение


Год выпуска: 2014
Страна: США
Жанр: Фантастика, боевик, мелодрама, приключения
Продолжительность: 02:13:56
Перевод: Профессиональный (полное дублирование)
Режиссер: Нил Бёргер
В ролях: Шейлин Вудли, Тео Джеймс, Эшли Джадд, Джай Кортни, Рэй Стивенсон, Зои Кравиц, Майлз Теллер, Тони Голдуин, Мэгги Кью, Кейт Уинслет
Описание: Действие развивается на Земле в будущем, в деспотичном Чикаго. Все подростки, достигшие 16 лет, обязаны выбрать одну из пяти фракций и присоединиться к ней на всю оставшуюся жизнь. Каждая фракция представляет определенное качество: Искренность, Отречение, Бесстрашие, Дружелюбие и Эрудиция.
Изображение
Sample:
http://multi-up.com/987941
Качество: WEB-DL 720p
Формат: MKV
Видео кодек: H.264
Аудио кодек: AC3
Видео: 960x720@1280x720 25fps 3831kbps
Аудио: 48kHz 6ch 384kbps
"MediaInfo"
Формат : Matroska
Версия формата : Version 4 / Version 2
Размер файла : 4,02 Гбайт
Продолжительность : 2 ч. 13 м.
Общий поток : 4301 Кбит/сек
Дата кодирования : UTC 2014-07-21 19:03:33
Программа кодирования : mkvmerge v6.9.1 ('Blue Panther') 64bit built on Apr 18 2014 18:23:38
Библиотека кодирования : libebml v1.3.0 + libmatroska v1.4.1

Видео
Идентификатор : 1
Формат : AVC
Формат/Информация : Advanced Video Codec
Профиль формата : Main@L3.1
Параметр CABAC формата : Нет
Параметр ReFrames формата : 2 кадра
Идентификатор кодека : V_MPEG4/ISO/AVC
Продолжительность : 2 ч. 13 м.
Битрейт : 3831 Кбит/сек
Ширина : 960 пикселей
Высота : 720 пикселей
Соотношение сторон : 16:9
Режим частоты кадров : Постоянный
Частота кадров : 25,000 кадров/сек
Цветовое пространство : YUV
Субдискретизация насыщенности : 4:2:0
Битовая глубина : 8 бит
Тип развёртки : Прогрессивная
Бит/(Пиксели*Кадры) : 0.222
Размер потока : 3,58 Гбайт (89%)
Язык : English
Default : Да
Forced : Нет
Основные цвета : BT.709
Характеристики трансфера : BT.709
Коэффициенты матрицы : BT.709

Аудио
Идентификатор : 2
Формат : AC-3
Формат/Информация : Audio Coding 3
Расширение режима : CM (complete main)
Параметр Endianness формата : Big
Идентификатор кодека : A_AC3
Продолжительность : 2 ч. 13 м.
Вид битрейта : Постоянный
Битрейт : 384 Кбит/сек
Каналы : 6 каналов
Расположение каналов : Front: L C R, Side: L R, LFE
Частота : 48,0 КГц
Битовая глубина : 16 бит
Метод сжатия : С потерями
Размер потока : 368 Мбайт (9%)
Язык : Russian
Default : Да
Forced : Нет

Меню
00:00:00.000 : en:Глава 1
00:07:13.000 : en:Глава 2
00:12:11.000 : en:Глава 3
00:17:35.000 : en:Глава 4
00:22:33.000 : en:Глава 5
00:29:06.000 : en:Глава 6
00:33:58.000 : en:Глава 7
00:39:25.000 : en:Глава 8
00:43:45.000 : en:Глава 9
00:49:38.000 : en:Глава 10
00:54:40.000 : en:Глава 11
00:59:37.000 : en:Глава 12
01:03:48.000 : en:Глава 13
01:10:19.000 : en:Глава 14
01:14:42.000 : en:Глава 15
01:20:07.000 : en:Глава 16
01:25:03.000 : en:Глава 17
01:32:05.000 : en:Глава 18
01:38:01.000 : en:Глава 19
01:43:31.000 : en:Глава 20
01:49:30.000 : en:Глава 21
01:53:59.000 : en:Глава 22
01:58:26.000 : en:Глава 23
02:03:56.000 : en:Глава 24
Свернуть

"Скриншоты"
Изображение
Изображение
Изображение
Свернуть
Не в сети
Профиль  
 Добавлено: 2014-07-22 06:53 (спустя 7 часов)
Аватара пользователя
Стаж: 8 лет
Сообщений: 128
Спасибок: 409
Лайков: 25
iTunes перевод?
Не в сети
Профиль  
 Добавлено: 2014-07-22 06:58 (спустя 5 минут)
DVD Release Group
Аватара пользователя
Стаж: 7 лет 1 месяц
Сообщений: 3544
Спасибок: 246956
Лайков: 1018
CHEbupa|_|_|Ka
Да.
Не в сети
Профиль  
 Добавлено: 2014-07-22 07:41 (спустя 42 минуты)
Аватара пользователя
Стаж: 8 лет
Сообщений: 128
Спасибок: 409
Лайков: 25
rastor
спасибо.
Не в сети
Профиль  
Начать новую темуОтветить на тему  [ Сообщений: 4 ] 
Вы не можете начинать темы
Вы не можете отвечать на сообщения
Вы не можете редактировать свои сообщения
Вы не можете удалять свои сообщения