Правила форума

Здесь находятся раздачи, на которых не было полного источника (сида) более месяца.
Вы можете вернуть релиз в соответствующий раздел, для этого напишите нам в специальной теме и встаньте на раздачу.
Новые релизы, повторяющие релизы в архиве, повторами не считаются.
Начать новую темуОтветить на тему  [ Сообщений: 9 ] 
Сообщения
 Добавлено: 2013-03-28 04:59
DVD Release Group
Аватара пользователя
Стаж: 7 лет 1 месяц
Сообщений: 3570
Спасибок: 247893
Лайков: 1021
Джанго освобожденный

Django Unchained

«Они забрали его свободу. Он заберёт у них всё.»


Изображение


Год выпуска: 2012
Страна: США
Жанр: Драма, комедия, приключения, вестерн
Продолжительность: 02:45:22
Перевод: Профессиональный (полное дублирование) чистый звук
Субтитры: Русские, английские
Режиссер: Квентин Тарантино
В ролях: Джейми Фокс, Кристоф Вальц, Леонардо ДиКаприо, Керри Вашингтон, Сэмюэл Л. Джексон, Уолтон Гоггинс, Деннис Кристофер, Джеймс Римар, Майкл Паркс, Дон Джонсон
Описание: Эксцентричный охотник за головами, также известный как «Дантист», промышляет отстрелом самых опасных преступников на Диком Западе. Работенка пыльная, и без надежного помощника ему не обойтись. Но как найти такого и желательно не очень дорогого? Беглый раб по имени Джанго — прекрасная кандидатура. Правда, у нового помощника свои мотивы — кое с чем надо разобраться…
Изображение
Sample:
http://multi-up.com/847570
Качество: BDRip 720p
Формат: MKV
Видео кодек: H264
Аудио кодек: AC3, DTS
Видео: 1280x534 23.98fps 5500Kbps 0.336bit/pixel
Аудио:
Аудио Rus: AC3 48kHz 6ch 448kbps
Аудио Eng: DTS 48kHz 6ch 1510kbps
"MediaInfo"
Формат : Matroska
Версия формата : Version 2
Размер файла : 8,62 Гбайт
Продолжительность : 2 ч. 45 м.
Общий поток : 7460 Кбит/сек
Дата кодирования : UTC 2013-03-27 22:48:53
Программа кодирования : mkvmerge v5.2.0 ('I can't explain') built on Dec 18 2011 18:12:03
Библиотека кодирования : libebml v1.2.3 + libmatroska v1.3.0

Видео
Идентификатор : 1
Формат : AVC
Формат/Информация : Advanced Video Codec
Профиль формата : High@L4.1
Параметр CABAC формата : Да
Параметр ReFrames формата : 12 кадров
Идентификатор кодека : V_MPEG4/ISO/AVC
Продолжительность : 2 ч. 45 м.
Битрейт : 5500 Кбит/сек
Ширина : 1280 пикселей
Высота : 534 пикселя
Соотношение сторон : 2,40:1
Частота кадров : 23,976 кадра/сек
Цветовое пространство : YUV
Субдискретизация насыщенности : 4:2:0
Битовая глубина : 8 бит
Тип развёртки : Прогрессивная
Бит/(Пиксели*Кадры) : 0.336
Размер потока : 6,18 Гбайт (72%)
Заголовок : Джанго освобожденный
Библиотека кодирования : x264 core 130 r2273 b3065e6
Настройки программы : cabac=1 / ref=12 / deblock=1:-3:-3 / analyse=0x3:0x113 / me=umh / subme=10 / psy=1 / psy_rd=1.10:0.00 / mixed_ref=1 / me_range=32 / chroma_me=1 / trellis=2 / 8x8dct=1 / cqm=0 / deadzone=21,11 / fast_pskip=0 / chroma_qp_offset=-2 / threads=18 / lookahead_threads=3 / sliced_threads=0 / nr=0 / decimate=0 / interlaced=0 / bluray_compat=0 / constrained_intra=0 / bframes=8 / b_pyramid=2 / b_adapt=2 / b_bias=0 / direct=3 / weightb=1 / open_gop=0 / weightp=2 / keyint=240 / keyint_min=24 / scenecut=40 / intra_refresh=0 / rc=2pass / mbtree=0 / bitrate=5500 / ratetol=1.0 / qcomp=0.75 / qpmin=0 / qpmax=69 / qpstep=4 / cplxblur=20.0 / qblur=0.5 / ip_ratio=1.20 / pb_ratio=1.15 / aq=1:0.80
Язык : English
Default : Да
Forced : Да

Аудио #1
Идентификатор : 2
Формат : AC-3
Формат/Информация : Audio Coding 3
Расширение режима : CM (complete main)
Идентификатор кодека : A_AC3
Продолжительность : 2 ч. 45 м.
Вид битрейта : Постоянный
Битрейт : 448 Кбит/сек
Каналы : 6 каналов
Расположение каналов : Front: L C R, Side: L R, LFE
Частота : 48,0 КГц
Битовая глубина : 16 бит
Метод сжатия : С потерями
Размер потока : 530 Мбайт (6%)
Заголовок : DD 5.1 @ 448 kbps - Dub
Язык : Russian
Default : Да
Forced : Да

Аудио #2
Идентификатор : 3
Формат : DTS
Формат/Информация : Digital Theater Systems
Идентификатор кодека : A_DTS
Продолжительность : 2 ч. 45 м.
Вид битрейта : Постоянный
Битрейт : 1510 Кбит/сек
Каналы : 6 каналов
Расположение каналов : Front: L C R, Side: L R, LFE
Частота : 48,0 КГц
Битовая глубина : 24 бит
Метод сжатия : С потерями
Размер потока : 1,74 Гбайт (20%)
Заголовок : DTS 5.1 @ 1536 kbps
Язык : English
Default : Нет
Forced : Нет

Текст #1
Идентификатор : 4
Формат : UTF-8
Идентификатор кодека : S_TEXT/UTF8
Идентификатор кодека/Информация : UTF-8 Plain Text
Язык : Russian
Default : Нет
Forced : Нет

Текст #2
Идентификатор : 5
Формат : UTF-8
Идентификатор кодека : S_TEXT/UTF8
Идентификатор кодека/Информация : UTF-8 Plain Text
Язык : English
Default : Нет
Forced : Нет
Свернуть

"Скриншоты"
Изображение
Изображение
Изображение
Изображение
Свернуть

Раздача группы:
Изображение
Не в сети
Профиль  
 Добавлено: 2013-03-28 13:42 (спустя 8 часов)
Стаж: 5 лет 3 месяца
Сообщений: 150
Лайков: 2
Фильм просто огонь!Мне всегда нравился стиль Тарантино!Даже не заметил как прошли почти три часа!А тех кто не смотрел мне искренне жаль.
Не в сети
Профиль  
 Добавлено: 2013-03-28 15:33 (спустя 1 час 50 минут)
Аватара пользователя
Стаж: 8 лет 3 месяца
Сообщений: 106
Спасибок: 21
Лайков: 7
Благодать тебе)) :)
Не в сети
Профиль  
 Добавлено: 2013-03-28 18:10 (спустя 2 часа 37 минут)
Аватара пользователя
Стаж: 4 года 11 месяцев
Сообщений: 67

09лёшик09:

Фильм просто огонь!Мне всегда нравился стиль Тарантино!Даже не заметил как прошли почти три часа!А тех кто не смотрел мне искренне жаль.
просто мы ждем блюрей :ti_pa:
Не в сети
Профиль  
 Добавлено: 2013-03-29 21:09 (спустя 1 день 2 часа)
Аватара пользователя
Стаж: 7 лет 2 месяца
Возраст: 26
Сообщений: 327
Спасибок: 2329
Лайков: 5
Мне кажется на озвучку "дантиста" лучше б взяли того же, что озвучивал "Охотника на евреев "
Не в сети
Профиль  
 Добавлено: 2013-04-01 07:33 (спустя 2 дня 10 часов)
Аватара пользователя
Стаж: 8 лет
Сообщений: 1396
Спасибок: 39
Лайков: 65
почему дерьмо одноголосое в золоте а тут нет :(
Не в сети
Профиль  
 Добавлено: 2013-04-06 15:59 (спустя 5 дней)
Аватара пользователя
Стаж: 8 лет 2 месяца
Возраст: 23
Сообщений: 1671
Спасибок: 320
Лайков: 2
почему временная?
_________________
sumsumsumsum sumsum
Не в сети
Профиль  
 Добавлено: 2013-04-12 13:57 (спустя 5 дней)
Аватара пользователя
Стаж: 8 лет
Сообщений: 1396
Спасибок: 39
Лайков: 65
ну не лиц потому что...пораб знать
Не в сети
Профиль  
 Добавлено: 2013-04-28 10:25 (спустя 15 дней)
Модератор
Аватара пользователя
Стаж: 8 лет 11 месяцев
Сообщений: 516
Спасибок: 26888
Лайков: 1
viewtopic.php?f=1743&t=506968
Не в сети
Профиль  
Начать новую темуОтветить на тему  [ Сообщений: 9 ] 
Вы не можете начинать темы
Вы не можете отвечать на сообщения
Вы не можете редактировать свои сообщения
Вы не можете удалять свои сообщения