Правила форума

Здесь находятся раздачи, на которых не было полного источника (сида) более месяца.
Вы можете вернуть релиз в соответствующий раздел, для этого напишите нам в специальной теме и встаньте на раздачу.
Новые релизы, повторяющие релизы в архиве, повторами не считаются.
Начать новую темуОтветить на тему  [ Сообщений: 9 ] 
Сообщения
 Добавлено: 2013-03-28 15:05
DVD Release Group
Аватара пользователя
Стаж: 7 лет 1 месяц
Сообщений: 3541
Спасибок: 246635
Лайков: 1016
Джанго освобожденный

Django Unchained

«Они забрали его свободу. Он заберёт у них всё.»


Изображение


Год выпуска: 2012
Страна: США
Жанр: Драма, комедия, приключения, вестерн
Продолжительность: 02:45:23
Перевод: Профессиональный (полное дублирование) Чистый звук
Субтитры: Нет
Режиссер: Квентин Тарантино
В ролях: Джейми Фокс, Кристоф Вальц, Леонардо ДиКаприо, Керри Вашингтон, Сэмюэл Л. Джексон, Уолтон Гоггинс, Деннис Кристофер, Джеймс Римар, Майкл Паркс, Дон Джонсон
Описание: Эксцентричный охотник за головами, также известный как «Дантист», промышляет отстрелом самых опасных преступников на Диком Западе. Работенка пыльная, и без надежного помощника ему не обойтись. Но как найти такого и желательно не очень дорогого? Беглый раб по имени Джанго — прекрасная кандидатура. Правда, у нового помощника свои мотивы — кое с чем надо разобраться…
Изображение
Sample:
http://multi-up.com/847569
Качество: BDRip 1080p
Формат: MKV
Видео кодек: H264
Аудио кодек: AC3, DTS
Видео: 1920x800 23.98fps 12.1Mbps 0.330bit/pixel
Аудио:
Аудио Rus: AC3 48kHz 6ch 448kbps
Аудио Eng: DTS 48kHz 6ch 1510kbps
"MediaInfo"
Формат : Matroska
Версия формата : Version 2
Размер файла : 16,3 Гбайт
Продолжительность : 2 ч. 45 м.
Общий поток : 14,1 Мбит/сек
Название фильма : Джанго освобожденный
Дата кодирования : UTC 2013-03-28 10:48:28
Программа кодирования : mkvmerge v5.6.0 ('Kenya Kane') built on Jun 29 2012 15:01:44
Библиотека кодирования : libebml v1.2.3 + libmatroska v1.3.0

Видео
Идентификатор : 1
Формат : AVC
Формат/Информация : Advanced Video Codec
Профиль формата : High@L4.1
Параметр CABAC формата : Да
Параметр ReFrames формата : 5 кадров
Режим смешивания : Header stripping
Идентификатор кодека : V_MPEG4/ISO/AVC
Продолжительность : 2 ч. 45 м.
Битрейт : 12,2 Мбит/сек
Ширина : 1920 пикселей
Высота : 800 пикселей
Соотношение сторон : 2,40:1
Частота кадров : 23,976 кадра/сек
Цветовое пространство : YUV
Субдискретизация насыщенности : 4:2:0
Битовая глубина : 8 бит
Тип развёртки : Прогрессивная
Бит/(Пиксели*Кадры) : 0.330
Размер потока : 13,7 Гбайт (84%)
Заголовок : Джанго освобожденный
Библиотека кодирования : x264 core 125 r2208 d9d2288
Настройки программы : cabac=1 / ref=5 / deblock=1:-3:-3 / analyse=0x3:0x113 / me=umh / subme=10 / psy=1 / psy_rd=1.05:0.10 / mixed_ref=1 / me_range=32 / chroma_me=1 / trellis=2 / 8x8dct=1 / cqm=0 / deadzone=21,11 / fast_pskip=0 / chroma_qp_offset=-2 / threads=8 / lookahead_threads=1 / sliced_threads=0 / nr=0 / decimate=1 / interlaced=0 / bluray_compat=0 / constrained_intra=0 / bframes=6 / b_pyramid=2 / b_adapt=2 / b_bias=0 / direct=3 / weightb=1 / open_gop=0 / weightp=2 / keyint=250 / keyint_min=23 / scenecut=40 / intra_refresh=0 / rc=2pass / mbtree=0 / bitrate=12168 / ratetol=1.0 / qcomp=0.70 / qpmin=0 / qpmax=69 / qpstep=4 / cplxblur=20.0 / qblur=0.5 / ip_ratio=1.40 / pb_ratio=1.30 / aq=2:1.00
Язык : English
Default : Да
Forced : Нет

Аудио #1
Идентификатор : 2
Формат : AC-3
Формат/Информация : Audio Coding 3
Расширение режима : CM (complete main)
Режим смешивания : Header stripping
Идентификатор кодека : A_AC3
Продолжительность : 2 ч. 45 м.
Вид битрейта : Постоянный
Битрейт : 448 Кбит/сек
Каналы : 6 каналов
Расположение каналов : Front: L C R, Side: L R, LFE
Частота : 48,0 КГц
Битовая глубина : 16 бит
Метод сжатия : С потерями
Размер потока : 530 Мбайт (3%)
Заголовок : AC3 5.1 @ 448 - Дубляж
Язык : Russian
Default : Нет
Forced : Нет

Аудио #2
Идентификатор : 3
Формат : DTS
Формат/Информация : Digital Theater Systems
Режим смешивания : Header stripping
Идентификатор кодека : A_DTS
Продолжительность : 2 ч. 45 м.
Вид битрейта : Постоянный
Битрейт : 1510 Кбит/сек
Каналы : 6 каналов
Расположение каналов : Front: L C R, Side: L R, LFE
Частота : 48,0 КГц
Битовая глубина : 24 бит
Метод сжатия : С потерями
Размер потока : 1,74 Гбайт (11%)
Язык : English
Default : Нет
Forced : Нет
Свернуть

"Скриншоты"
Изображение
Изображение
Изображение
Изображение
Изображение
Изображение
Изображение
Изображение
Свернуть

Раздача группы:
Изображение


Последний раз редактировалось rastor 2013-04-03 02:15, всего редактировалось 1 раз.
Не в сети
Профиль  
 Добавлено: 2013-03-28 20:29 (спустя 5 часов)
Стаж: 8 лет 10 месяцев
Сообщений: 172
от лицензии будет чем нибудь отличаться???
Не в сети
Профиль  
 Добавлено: 2013-03-29 05:23 (спустя 8 часов)
DVD Release Group
Аватара пользователя
Стаж: 7 лет 1 месяц
Сообщений: 3541
Спасибок: 246635
Лайков: 1016
gamer13
Смотря у кого какая аппаратура.
"Спектр звука"
Изображение
Свернуть
Не в сети
Профиль  
 Добавлено: 2013-03-29 14:05 (спустя 8 часов)
Стаж: 8 лет 10 месяцев
Сообщений: 172

rastor:

gamer13
Смотря у кого какая аппаратура.
"Спектр звука"
Изображение
Свернуть
на телеке сколько не прибавляешь звук тихий всеравно
Не в сети
Профиль  
 Добавлено: 2013-03-30 13:48 (спустя 23 часа)
Аватара пользователя
Стаж: 8 лет 3 месяца
Сообщений: 53
Спасибок: 58
Фильм супер, звук (в наушниках) отличный.
Не в сети
Профиль  
 Добавлено: 2013-04-02 15:53 (спустя 3 дня)
Аватара пользователя
Стаж: 8 лет 11 месяцев
Возраст: 25
Сообщений: 146
Спасибок: 85
Качество: BDRip 720p
Формат: MKV
Видео кодек: H264
Аудио кодек: AC3, DTS
Видео: 1920x800


Ошибка, или я что то не понимаю?
Не в сети
Профиль  
 Добавлено: 2013-04-13 19:43 (спустя 11 дней)
Аватара пользователя
Стаж: 8 лет 5 месяцев
Возраст: 28
Сообщений: 350
Спасибок: 888
Лайков: 1
Посмотрел этот релиз на ТВ Samsung на встроенных колонках - нормальный звук, громкость на 30 правда выставил.
_________________
3570K, Maximus V Gene, CMZ8GX3M2A1600C9B, HD7970, VTX3-25SAT3-60G, HDS721010DLE630, DVR219LBK, SX 850, Armor A30, VX2336S-LED, Synology DS112j, WD30EFRX, 100/100 Mb/sec Д/Н
Не в сети
Профиль  
 Добавлено: 2013-04-17 23:54 (спустя 4 дня)
Аватара пользователя
Стаж: 8 лет 10 месяцев
Возраст: 30
Сообщений: 29
Ждем качеств.звук!
Не в сети
Профиль  
 Добавлено: 2013-04-28 10:26 (спустя 10 дней)
Модератор
Аватара пользователя
Стаж: 8 лет 11 месяцев
Сообщений: 516
Спасибок: 26888
Лайков: 1
viewtopic.php?f=1743&t=506968
Не в сети
Профиль  
Начать новую темуОтветить на тему  [ Сообщений: 9 ] 
Вы не можете начинать темы
Вы не можете отвечать на сообщения
Вы не можете редактировать свои сообщения
Вы не можете удалять свои сообщения