Правила форума

Здесь находятся раздачи, на которых не было полного источника (сида) более месяца.
Вы можете вернуть релиз в соответствующий раздел, для этого напишите нам в специальной теме и встаньте на раздачу.
Новые релизы, повторяющие релизы в архиве, повторами не считаются.
Начать новую темуОтветить на тему  [ Сообщений: 15 ] 
Сообщения
 Добавлено: 2013-06-01 18:10
Top-releaser
Аватара пользователя
Стаж: 8 лет 9 месяцев
Сообщений: 479
Спасибок: 20190
Лайков: 16
Изображение

Джек – покоритель великанов

Jack the Giant Slayer


«If you think you know the story, you don't know Jack.»

Год выпуска: 2012
Страна: Изображение США; Bad Hat Harry Productions, Big Kid Pictures, Legendary Pictures
Жанр: Фэнтези , приключения
Продолжительность: 01:54:20
Перевод: Профессиональный (Дублированный), Оригинал
Субтитры: Английские

Режиссёр: Брайан Сингер / Bryan Singer

В ролях: Николас Холт, Эван МакГрегор, Билл Найи, Стэнли Туччи, Иэн МакШейн, Уорвик Дэвис, Эдди Марсан, Юэн Бремнер, Элинор Томлинсон, Джон Кассир

Описание: История начинается с похищения принцессы, что грозит нарушить хрупкий мир между людьми и великанами. Юный фермер возглавляет вылазку в царство гигантов в надежде спасти девушку.


Качество: BDRip 1080p
Формат: MKV

Видео: AVC at 8066 Кбит/сек, 1920 x 800 (2.400) at 23.976 fps


Аудио 1: AC3, 6 ch, 448 Кбит/с, 48 KHz [Дубляж] - Чистый звук
Аудио 2: DTS at 1510 Кбит/сек, 6 канала(ов), 48,0 КГц [Оригинал]
Раздача: Изображение


Изображение
MediaInfo

Общее
Уникальный идентификатор : 244128657108683733847576263500746553025 (0xB7A97816FE8D10A9A87CE6ABBA0176C1)
Полное имя : C:\Users\Домашний\Desktop\Djek.pokoritel.velikanov.2013.BDRip.1080p[nntt].mkv
Формат : Matroska
Версия формата : Version 2
Размер файла : 8,01 Гбайт
Продолжительность : 1 ч. 54 м.
Общий поток : 10,0 Мбит/сек
Дата кодирования : UTC 2013-06-01 11:36:10
Программа кодирования : mkvmerge v4.9.1 ('Ich will') built on Jul 11 2011 23:53:15
Библиотека кодирования : libebml v1.2.1 + libmatroska v1.1.1

Видео
Идентификатор : 1
Формат : AVC
Формат/Информация : Advanced Video Codec
Профиль формата : High@L4.1
Параметр CABAC формата : Да
Параметр ReFrames формата : 5 кадров
Идентификатор кодека : V_MPEG4/ISO/AVC
Продолжительность : 1 ч. 54 м.
Битрейт : 8066 Кбит/сек
Ширина : 1920 пикселей
Высота : 800 пикселей
Соотношение сторон : 2,40:1
Режим частоты кадров : Постоянный
Частота кадров : 23,976 кадра/сек
Цветовое пространство : YUV
Субдискретизация насыщенности : 4:2:0
Битовая глубина : 8 бит
Тип развёртки : Прогрессивная
Бит/(Пиксели*Кадры) : 0.219
Размер потока : 6,28 Гбайт (78%)
Библиотека кодирования : x264 core 133 r2334 a3ac64b
Настройки программы : cabac=1 / ref=5 / deblock=1:0:0 / analyse=0x3:0x133 / me=umh / subme=7 / psy=1 / psy_rd=1.00:0.00 / mixed_ref=1 / me_range=16 / chroma_me=1 / trellis=1 / 8x8dct=1 / cqm=0 / deadzone=21,11 / fast_pskip=0 / chroma_qp_offset=-2 / threads=18 / lookahead_threads=3 / sliced_threads=0 / nr=0 / decimate=1 / interlaced=0 / bluray_compat=0 / constrained_intra=0 / bframes=3 / b_pyramid=2 / b_adapt=1 / b_bias=0 / direct=1 / weightb=1 / open_gop=0 / weightp=2 / keyint=250 / keyint_min=23 / scenecut=40 / intra_refresh=0 / rc_lookahead=40 / rc=2pass / mbtree=1 / bitrate=8066 / ratetol=1.0 / qcomp=0.60 / qpmin=0 / qpmax=69 / qpstep=4 / cplxblur=20.0 / qblur=0.5 / ip_ratio=1.40 / aq=1:1.00
Язык : English
Default : Да
Forced : Нет

Аудио #1
Идентификатор : 2
Формат : AC-3
Формат/Информация : Audio Coding 3
Расширение режима : CM (complete main)
Параметр Endianness формата : Big
Идентификатор кодека : A_AC3
Продолжительность : 1 ч. 54 м.
Вид битрейта : Постоянный
Битрейт : 448 Кбит/сек
Каналы : 6 каналов
Расположение каналов : Front: L C R, Side: L R, LFE
Частота : 48,0 КГц
Битовая глубина : 16 бит
Метод сжатия : С потерями
Размер потока : 366 Мбайт (4%)
Язык : Russian
Default : Нет
Forced : Нет

Аудио #2
Идентификатор : 3
Формат : DTS
Формат/Информация : Digital Theater Systems
Режим : 16
Параметр Endianness формата : Big
Идентификатор кодека : A_DTS
Продолжительность : 1 ч. 54 м.
Вид битрейта : Постоянный
Битрейт : 1509 Кбит/сек
Каналы : 6 каналов
Расположение каналов : Front: L C R, Side: L R, LFE
Частота : 48,0 КГц
Битовая глубина : 24 бит
Метод сжатия : С потерями
Размер потока : 1,21 Гбайт (15%)
Язык : English
Default : Да
Forced : Нет

Текст
Идентификатор : 4
Формат : UTF-8
Идентификатор кодека : S_TEXT/UTF8
Идентификатор кодека/Информация : UTF-8 Plain Text
Язык : English
Default : Да
Forced : Нет

Меню
00:00:00.000 : en:00:00:00.000
00:10:21.371 : en:00:10:21.371
00:19:23.746 : en:00:19:23.746
00:29:52.207 : en:00:29:52.207
00:38:55.375 : en:00:38:55.375
00:49:24.879 : en:00:49:24.879
00:59:35.489 : en:00:59:35.489
01:09:26.287 : en:01:09:26.287
01:20:39.168 : en:01:20:39.168
01:29:51.303 : en:01:29:51.303
01:39:02.812 : en:01:39:02.812
01:45:57.726 : en:01:45:57.726


Свернуть
Скриншоты

Изображение
Изображение
Изображение
Изображение
Изображение
Свернуть
_________________
Изображение
Изображение
Не в сети
Профиль  
 Добавлено: 2013-06-01 18:21 (спустя 10 минут)
Аватара пользователя
Стаж: 7 лет 11 месяцев
Сообщений: 786
Спасибок: 25
Лайков: 9
А какая скорость отдачи ??? Стоит то качать если скорости отдачи 0 :(
Не в сети
Профиль  
 Добавлено: 2013-06-01 18:25 (спустя 4 минуты)
Аватара пользователя
Стаж: 7 лет 11 месяцев
Сообщений: 198
Лайков: 4
скорости норм :) я уже 10% скачал:)
Не в сети
Профиль  
 Добавлено: 2013-06-01 18:29 (спустя 3 минуты)
Аватара пользователя
Стаж: 7 лет 11 месяцев
Сообщений: 786
Спасибок: 25
Лайков: 9
ВЫ ПРИКАЛЫВАЕТЕСЬ СКОРОСТЬ СКАЧИВАНИЯ 50 kb
Не в сети
Профиль  
 Добавлено: 2013-06-01 18:31 (спустя 2 минуты)
Аватара пользователя
Стаж: 7 лет 11 месяцев
Сообщений: 198
Лайков: 4
у мя 3 мбита:) и отдача 7 :)
Не в сети
Профиль  
 Добавлено: 2013-06-01 18:35 (спустя 4 минуты)
Аватара пользователя
Стаж: 7 лет 11 месяцев
Сообщений: 786
Спасибок: 25
Лайков: 9
И что жи вас в списке пиров та не видно ???
Не в сети
Профиль  
 Добавлено: 2013-06-01 18:40 (спустя 4 минуты)
Аватара пользователя
Стаж: 7 лет 11 месяцев
Сообщений: 198
Лайков: 4
а хз)
Не в сети
Профиль  
 Добавлено: 2013-06-01 20:28 (спустя 1 час 48 минут)
Стаж: 3 года 11 месяцев
Сообщений: 30
У меня почему то без перевода?!

Добавлено спустя 32 минуты:
Скачал BDRip 720р-там дубляж имеется.Автор разберись.А за фильм огромное спасибо!
Не в сети
Профиль  
 Добавлено: 2013-06-01 21:55 (спустя 1 час 26 минут)
Аватара пользователя
Стаж: 6 лет 1 месяц
Сообщений: 2

vocson38:

У меня почему то без перевода?!

Добавлено спустя 32 минуты:
Скачал BDRip 720р-там дубляж имеется.Автор разберись.А за фильм огромное спасибо!

в фильме 2 звуковые дорожки, на русскую переключись и будет тебе счастье :men:
Не в сети
Профиль  
 Добавлено: 2013-06-02 15:02 (спустя 17 часов)
Аватара пользователя
Стаж: 8 лет 3 месяца
Сообщений: 20
Звук норм. Смотреть можно :)
Не в сети
Профиль  
 Добавлено: 2013-06-02 19:26 (спустя 4 часа)
Аватара пользователя
Стаж: 7 лет 11 месяцев
Сообщений: 786
Спасибок: 25
Лайков: 9
:co_ol: И фильм и качество отменное посмотрел и не пожалел Класс
Не в сети
Профиль  
 Добавлено: 2013-06-03 18:27 (спустя 23 часа)
Стаж: 8 лет 7 месяцев
Сообщений: 137
Спасибок: 28
Лайков: 2
где блин 2я дорожка?
Не в сети
Профиль  
 Добавлено: 2013-06-06 06:10 (спустя 2 дня 11 часов)
Аватара пользователя
Стаж: 7 лет 4 месяца
Возраст: 28
Сообщений: 10
8 с лишним гигов скачано в пустую ...на счет 2х звуковых дорожек гон . Есть только одна ( пробовал открывать через 4 проигрывателя видит везде только 1 дорожку - АНГЛИЙСКУЮ )
_________________
ИзображениеЯ.Интернетометр. Измерьте вашу скорость.
Не в сети
Профиль  
 Добавлено: 2013-06-07 13:00 (спустя 1 день 6 часов)
Стаж: 8 лет
Сообщений: 219
Лайков: 18
Русская дорога есть. Проверено в VLC. И прежде чем предьявлять претензии - надо было сначала на компе проверить!
Не в сети
Профиль  
 Добавлено: 2013-06-19 18:39 (спустя 12 дней)
Модератор
Аватара пользователя
Стаж: 8 лет 11 месяцев
Сообщений: 516
Спасибок: 26888
Лайков: 1
viewtopic.php?f=1750&t=511349
Не в сети
Профиль  
Начать новую темуОтветить на тему  [ Сообщений: 15 ] 
Вы не можете начинать темы
Вы не можете отвечать на сообщения
Вы не можете редактировать свои сообщения
Вы не можете удалять свои сообщения