Правила форума

Здесь находятся раздачи, на которых не было полного источника (сида) более месяца.
Вы можете вернуть релиз в соответствующий раздел, для этого напишите нам в специальной теме и встаньте на раздачу.
Новые релизы, повторяющие релизы в архиве, повторами не считаются.
Начать новую темуОтветить на тему  [ Сообщений: 9 ] 
Сообщения
 Добавлено: 2013-06-01 18:28
Top-releaser
Аватара пользователя
Стаж: 8 лет 9 месяцев
Сообщений: 479
Спасибок: 20189
Лайков: 16
Изображение

Джек – покоритель великанов

Jack the Giant Slayer


«If you think you know the story, you don't know Jack.»

Год выпуска: 2012
Страна: Изображение США; Bad Hat Harry Productions, Big Kid Pictures, Legendary Pictures
Жанр: Фэнтези , приключения
Продолжительность: 01:54:20
Перевод: Профессиональный (Дублированный), Оригинал
Субтитры: Английские

Режиссёр: Брайан Сингер / Bryan Singer

В ролях: Николас Холт, Эван МакГрегор, Билл Найи, Стэнли Туччи, Иэн МакШейн, Уорвик Дэвис, Эдди Марсан, Юэн Бремнер, Элинор Томлинсон, Джон Кассир

Описание: История начинается с похищения принцессы, что грозит нарушить хрупкий мир между людьми и великанами. Юный фермер возглавляет вылазку в царство гигантов в надежде спасти девушку.


Качество: BDRip 720p
Формат: MKV

Видео: AVC at 5328 Кбит/сек, 1280 x 536 (2.388) at 23.976 fps

Аудио 1: AC3, 6 ch, 448 Кбит/с, 48 KHz [Дубляж] - Чистый звук
Аудио 2: DTS at 1510 Кбит/сек, 6 канала(ов), 48,0 КГц [Оригинал]
Раздача: Изображение

Изображение

Изображение
MediaInfo

Общее
Уникальный идентификатор : 185946982372315408662907709215709962309 (0x8BE4160D65BEE61EAC3FBBA25855A045)
Полное имя : C:\Users\Домашний\Desktop\Djek.pokoritel.velikanov.2013.BDRip.720p[nntt].mkv
Формат : Matroska
Версия формата : Version 2
Размер файла : 5,82 Гбайт
Продолжительность : 1 ч. 54 м.
Общий поток : 7287 Кбит/сек
Дата кодирования : UTC 2013-06-01 11:22:15
Программа кодирования : mkvmerge v2.9.8 ('C'est le bon') built on Nov 20 2009 13:01:15
Библиотека кодирования : libebml v0.7.9 + libmatroska v0.8.1

Видео
Идентификатор : 1
Формат : AVC
Формат/Информация : Advanced Video Codec
Профиль формата : High@L4.1
Параметр CABAC формата : Да
Параметр ReFrames формата : 5 кадров
Идентификатор кодека : V_MPEG4/ISO/AVC
Продолжительность : 1 ч. 54 м.
Битрейт : 5328 Кбит/сек
Ширина : 1280 пикселей
Высота : 536 пикселей
Соотношение сторон : 2,40:1
Режим частоты кадров : Постоянный
Частота кадров : 23,976 кадра/сек
Цветовое пространство : YUV
Субдискретизация насыщенности : 4:2:0
Битовая глубина : 8 бит
Тип развёртки : Прогрессивная
Бит/(Пиксели*Кадры) : 0.324
Размер потока : 4,14 Гбайт (71%)
Библиотека кодирования : x264 core 133 r2334 a3ac64b
Настройки программы : cabac=1 / ref=5 / deblock=1:0:0 / analyse=0x3:0x133 / me=umh / subme=7 / psy=1 / psy_rd=1.00:0.00 / mixed_ref=1 / me_range=16 / chroma_me=1 / trellis=1 / 8x8dct=1 / cqm=0 / deadzone=21,11 / fast_pskip=0 / chroma_qp_offset=-2 / threads=18 / lookahead_threads=3 / sliced_threads=0 / nr=0 / decimate=1 / interlaced=0 / bluray_compat=0 / constrained_intra=0 / bframes=3 / b_pyramid=2 / b_adapt=1 / b_bias=0 / direct=1 / weightb=1 / open_gop=0 / weightp=2 / keyint=250 / keyint_min=23 / scenecut=40 / intra_refresh=0 / rc_lookahead=40 / rc=2pass / mbtree=1 / bitrate=5328 / ratetol=1.0 / qcomp=0.60 / qpmin=0 / qpmax=69 / qpstep=4 / cplxblur=20.0 / qblur=0.5 / ip_ratio=1.40 / aq=1:1.00
Язык : English
Default : Нет
Forced : Нет

Аудио #1
Идентификатор : 2
Формат : AC-3
Формат/Информация : Audio Coding 3
Расширение режима : CM (complete main)
Параметр Endianness формата : Big
Идентификатор кодека : A_AC3
Продолжительность : 1 ч. 54 м.
Вид битрейта : Постоянный
Битрейт : 448 Кбит/сек
Каналы : 6 каналов
Расположение каналов : Front: L C R, Side: L R, LFE
Частота : 48,0 КГц
Битовая глубина : 16 бит
Метод сжатия : С потерями
Размер потока : 366 Мбайт (6%)
Язык : Russian
Default : Да
Forced : Да

Аудио #2
Идентификатор : 3
Формат : DTS
Формат/Информация : Digital Theater Systems
Режим : 16
Параметр Endianness формата : Big
Идентификатор кодека : A_DTS
Продолжительность : 1 ч. 54 м.
Вид битрейта : Постоянный
Битрейт : 1509 Кбит/сек
Каналы : 6 каналов
Расположение каналов : Front: L C R, Side: L R, LFE
Частота : 48,0 КГц
Битовая глубина : 24 бит
Метод сжатия : С потерями
Задержка видео : 11 мс.
Размер потока : 1,21 Гбайт (21%)
Язык : English
Default : Нет
Forced : Нет

Текст
Идентификатор : 4
Формат : UTF-8
Идентификатор кодека : S_TEXT/UTF8
Идентификатор кодека/Информация : UTF-8 Plain Text
Заголовок : SDH
Язык : English
Default : Нет
Forced : Нет

Меню
00:00:00.000 : en:00:00:00.000
00:10:21.371 : en:00:10:21.371
00:19:23.746 : en:00:19:23.746
00:29:52.207 : en:00:29:52.207
00:38:55.375 : en:00:38:55.375
00:49:24.879 : en:00:49:24.879
00:59:35.489 : en:00:59:35.489
01:09:26.287 : en:01:09:26.287
01:20:39.168 : en:01:20:39.168
01:29:51.303 : en:01:29:51.303
01:39:02.812 : en:01:39:02.812
01:45:57.726 : en:01:45:57.726
01:45:57.726 : en:01:45:57.726


Свернуть
Скриншоты

Изображение
Изображение
Изображение
Изображение
Изображение
Свернуть
_________________
Изображение
Изображение
Не в сети
Профиль  
 Добавлено: 2013-06-01 19:22 (спустя 54 минуты)
Аватара пользователя
Стаж: 4 года 4 месяца
Возраст: 33
Сообщений: 178
Лайков: 3
:co_ol: :co_ol:
Не в сети
Профиль  
 Добавлено: 2013-06-01 20:06 (спустя 44 минуты)
Аватара пользователя
Стаж: 9 лет 1 месяц
Сообщений: 131
Спасибок: 2097
Лайков: 4
Фильм обалденный! Спасибо!!!!!!


Последний раз редактировалось muaddip 2013-06-02 09:59, всего редактировалось 2 раз(а).
Не в сети
Профиль  
 Добавлено: 2013-06-01 23:16 (спустя 3 часа)
Аватара пользователя
Стаж: 5 лет 6 месяцев
Возраст: 23
Сообщений: 484
Спасибок: 1403
Лайков: 1
:bra_vo: :co_ol:
Не в сети
Профиль  
 Добавлено: 2013-06-02 10:54 (спустя 11 часов)
Аватара пользователя
Стаж: 8 лет 11 месяцев
Возраст: 30
Сообщений: 94
Спасибок: 94
Сам фильм так себе, одноразовый. Дома посмотреть вполне неплохо, но из кинотеатра я бы вышел немного расстроенным.
Что касается раздачи, то всё отлично, рип качественный, звук тоже, автор молодец и ему огромное спасибо.
_________________
Оказываю юридические услуги
Делаю печати, штампы, факсимиле, экслибрисы
Не в сети
Профиль  
 Добавлено: 2013-06-03 20:13 (спустя 1 день 9 часов)
Стаж: 8 лет 2 месяца
Возраст: 23
Сообщений: 422
Лайков: 35
судя по коментам надо качнуть. автору респект!
Не в сети
Профиль  
 Добавлено: 2013-06-04 00:23 (спустя 4 часа)
Аватара пользователя
Стаж: 8 лет 9 месяцев
Сообщений: 154
Спасибок: 110
Лайков: 1
:dan_ser: :co_ol: спс
Не в сети
Профиль  
 Добавлено: 2013-06-10 13:41 (спустя 6 дней)
Аватара пользователя
Стаж: 6 лет 3 месяца
Сообщений: 26
Большое спасибо :bra_vo:
Не в сети
Профиль  
 Добавлено: 2013-06-19 18:40 (спустя 9 дней)
Модератор
Аватара пользователя
Стаж: 8 лет 11 месяцев
Сообщений: 516
Спасибок: 26888
Лайков: 1
viewtopic.php?f=1750&t=511349
Не в сети
Профиль  
Начать новую темуОтветить на тему  [ Сообщений: 9 ] 
Вы не можете начинать темы
Вы не можете отвечать на сообщения
Вы не можете редактировать свои сообщения
Вы не можете удалять свои сообщения