Правила форума

Здесь находятся раздачи, на которых не было полного источника (сида) более месяца.
Вы можете вернуть релиз в соответствующий раздел, для этого напишите нам в специальной теме и встаньте на раздачу.
Новые релизы, повторяющие релизы в архиве, повторами не считаются.
Начать новую темуОтветить на тему  [ Сообщений: 7 ] 
Сообщения
 Добавлено: 2013-04-18 19:00
DVD Release Group
Аватара пользователя
Стаж: 7 лет 1 месяц
Сообщений: 3544
Спасибок: 246958
Лайков: 1018
Джек Ричер

Jack Reacher

«У закона есть пределы. У него их нет»


Изображение


Год выпуска: 2012
Страна: США
Жанр: Боевик, триллер, криминал
Продолжительность: 02:10:24
Перевод: Профессиональный (полное дублирование) Чистый звук
Субтитры: Английские
Режиссер: Кристофер МакКуорри
В ролях: Том Круз, Розамунд Пайк, Ричард Дженкинс, Вернер Херцог, Дэвид Ойелоуо, Роберт Дюваль, Джей Кортни, Владимир Сизов, Джозеф Сикора, Майкл Рэймонд-Джеймс
Описание: Снайпер убивает пять случайных прохожих, но все улики указывают на человека, заключенного под стражу. На допросе подозреваемый умоляет об одном — найти Джека Ричера.
Изображение
Дополнительно: Сохранены оригинальные чапреты как на Blu-Ray
Sample:
http://multi-up.com/856049
Качество: BDRip 720p
Формат: MKV
Видео кодек: H.264
Аудио кодек: AC3, DTS
Видео: 1280x544 23.98fps 4489kbps
Аудио:
Аудио Rus: AC3 48kHz 6ch 448kbps
Аудио Eng: DTS 48kHz 6ch 1510kbps
"MediaInfo"
Формат : Matroska
Версия формата : Version 2
Размер файла : 5,87 Гбайт
Продолжительность : 2 ч. 10 м.
Общий поток : 6447 Кбит/сек
Дата кодирования : UTC 2013-04-18 04:38:52
Программа кодирования : mkvmerge v5.5.0 ('Healer') built on Apr 6 2012 21:43:24
Библиотека кодирования : libebml v1.2.3 + libmatroska v1.3.0

Видео
Идентификатор : 1
Формат : AVC
Формат/Информация : Advanced Video Codec
Профиль формата : High@L4.1
Параметр CABAC формата : Да
Параметр ReFrames формата : 5 кадров
Идентификатор кодека : V_MPEG4/ISO/AVC
Продолжительность : 2 ч. 10 м.
Битрейт : 4489 Кбит/сек
Ширина : 1280 пикселей
Высота : 544 пикселя
Соотношение сторон : 2,35:1
Частота кадров : 23,976 кадра/сек
Цветовое пространство : YUV
Субдискретизация насыщенности : 4:2:0
Битовая глубина : 8 бит
Тип развёртки : Прогрессивная
Бит/(Пиксели*Кадры) : 0.269
Размер потока : 3,97 Гбайт (68%)
Библиотека кодирования : x264 core 130 r2273 b3065e6
Настройки программы : cabac=1 / ref=5 / deblock=1:-3:-3 / analyse=0x3:0x113 / me=umh / subme=8 / psy=1 / psy_rd=1.00:0.00 / mixed_ref=1 / me_range=16 / chroma_me=1 / trellis=1 / 8x8dct=1 / cqm=0 / deadzone=21,11 / fast_pskip=1 / chroma_qp_offset=-2 / threads=12 / lookahead_threads=2 / sliced_threads=0 / nr=0 / decimate=1 / interlaced=0 / bluray_compat=0 / constrained_intra=0 / bframes=3 / b_pyramid=2 / b_adapt=2 / b_bias=0 / direct=3 / weightb=1 / open_gop=0 / weightp=2 / keyint=240 / keyint_min=24 / scenecut=40 / intra_refresh=0 / rc_lookahead=50 / rc=2pass / mbtree=1 / bitrate=4489 / ratetol=1.0 / qcomp=0.60 / qpmin=0 / qpmax=69 / qpstep=4 / cplxblur=20.0 / qblur=0.5 / ip_ratio=1.40 / aq=1:1.00
Язык : English
Default : Да
Forced : Нет

Аудио #1
Идентификатор : 2
Формат : AC-3
Формат/Информация : Audio Coding 3
Расширение режима : CM (complete main)
Идентификатор кодека : A_AC3
Продолжительность : 2 ч. 10 м.
Вид битрейта : Постоянный
Битрейт : 448 Кбит/сек
Каналы : 6 каналов
Расположение каналов : Front: L C R, Side: L R, LFE
Частота : 48,0 КГц
Битовая глубина : 16 бит
Метод сжатия : С потерями
Размер потока : 418 Мбайт (7%)
Заголовок : Russian 5.1
Язык : Russian
Default : Да
Forced : Нет

Аудио #2
Идентификатор : 3
Формат : DTS
Формат/Информация : Digital Theater Systems
Идентификатор кодека : A_DTS
Продолжительность : 2 ч. 10 м.
Вид битрейта : Постоянный
Битрейт : 1510 Кбит/сек
Каналы : 6 каналов
Расположение каналов : Front: L C R, Side: L R, LFE
Частота : 48,0 КГц
Битовая глубина : 24 бит
Метод сжатия : С потерями
Размер потока : 1,38 Гбайт (23%)
Язык : English
Default : Нет
Forced : Нет

Текст #1
Идентификатор : 4
Формат : UTF-8
Идентификатор кодека : S_TEXT/UTF8
Идентификатор кодека/Информация : UTF-8 Plain Text
Язык : English
Default : Нет
Forced : Нет

Текст #2
Идентификатор : 5
Формат : UTF-8
Идентификатор кодека : S_TEXT/UTF8
Идентификатор кодека/Информация : UTF-8 Plain Text
Заголовок : SDH
Язык : English
Default : Нет
Forced : Нет

Меню
00:00:00.000 : en:00:00:00.000
00:08:21.668 : en:00:08:21.668
00:14:19.901 : en:00:14:19.901
00:21:51.685 : en:00:21:51.685
00:30:02.342 : en:00:30:02.342
00:35:46.478 : en:00:35:46.478
00:41:22.980 : en:00:41:22.980
00:49:08.112 : en:00:49:08.112
00:55:36.291 : en:00:55:36.291
01:01:44.117 : en:01:01:44.117
01:08:11.296 : en:01:08:11.296
01:16:56.320 : en:01:16:56.320
01:23:51.526 : en:01:23:51.526
01:30:20.165 : en:01:30:20.165
01:38:01.584 : en:01:38:01.584
01:45:08.928 : en:01:45:08.928
01:53:39.312 : en:01:53:39.312
02:01:50.470 : en:02:01:50.470
Свернуть

"Скриншоты"
Изображение
Изображение
Изображение
Изображение
Изображение
Свернуть

Раздача группы:
Изображение
Не в сети
Профиль  
 Добавлено: 2013-04-18 19:51 (спустя 50 минут)
Аватара пользователя
Стаж: 8 лет 3 месяца
Сообщений: 106
Спасибок: 21
Лайков: 7
пока временный не качает?
Не в сети
Профиль  
 Добавлено: 2013-04-18 19:52 (спустя 1 минута)
DVD Release Group
Аватара пользователя
Стаж: 7 лет 1 месяц
Сообщений: 3544
Спасибок: 246958
Лайков: 1018
Заранее прошу прощения за скорость, больше 1мб/сек не будет.
Cкрытый текст
Изображение
Свернуть
Не в сети
Профиль  
 Добавлено: 2013-04-19 00:26 (спустя 4 часа)
Аватара пользователя
Стаж: 8 лет
Сообщений: 1390
Спасибок: 39
Лайков: 63
rastor
:co_ol: ну ё ток вчера с внехи сдернул бдрип 6 гб с камрип звуком...один х пересмотрю фильм пламя :a_g_a:
Не в сети
Профиль  
 Добавлено: 2013-04-20 20:15 (спустя 1 день 19 часов)
Стаж: 8 лет 7 месяцев
Сообщений: 70
Отлично! спасибо качаю
Не в сети
Профиль  
 Добавлено: 2013-04-20 23:10 (спустя 2 часа 54 минуты)
Аватара пользователя
Стаж: 6 лет 9 месяцев
Сообщений: 922
фильм на свою оценку тянет. посмотреть можно, отвращения не вызывает но и не захватывает.
бравый трушный вояка расследует дело о странном убийстве, лихо ускользает от погонь, блещет недюжим умом, метко стреляет, и всячески показывает свое преимущество над тупыми антигероями. ну вроде все как всегда)
Не в сети
Профиль  
 Добавлено: 2013-04-21 09:59 (спустя 10 часов)
Руководитель релиз-группы
Аватара пользователя
Стаж: 7 лет 4 месяца
Возраст: 31
Сообщений: 3407
Спасибок: 46729
Лайков: 5
viewtopic.php?f=1750&t=506380
Не в сети
Профиль  
Начать новую темуОтветить на тему  [ Сообщений: 7 ] 
Вы не можете начинать темы
Вы не можете отвечать на сообщения
Вы не можете редактировать свои сообщения
Вы не можете удалять свои сообщения