Правила форума

Здесь находятся раздачи, на которых не было полного источника (сида) более месяца.
Вы можете вернуть релиз в соответствующий раздел, для этого напишите нам в специальной теме и встаньте на раздачу.
Новые релизы, повторяющие релизы в архиве, повторами не считаются.
Начать новую темуОтветить на тему  [ Сообщений: 3 ] 
Сообщения
 Добавлено: 2011-02-12 16:39
Top-releaser
Аватара пользователя
Стаж: 7 лет 3 месяца
Возраст: 25
Сообщений: 1036
Спасибок: 2694
Лайков: 9

Джинны / Djinns / Stranded

Изображение



Год выхода: 2010
Страна: Франция, Марокко

Жанр: ужасы, боевик, военный
Продолжительность:01:39:12
Перевод:Профессиональный (многоголосый)

Режиссер: Хью и Сандра Мартин
Сценарий: Хью Мартин, Сандра Мартин
Продюсер:Кэролайн Адриан, Бенедикт Беллок, Фабрис Голдштейн, ...
Оператор: Пьер Коттро
Композитор: Зигфрид Канто

В ролях:Грегуар Лепренс-Ренге, Тьерри Фремон, Саид Тагмауи, Сирил Раффаэлли(13 район), Орельен Вик, Стефан Дебак, Маттиас Ван Каш, Омар Лотфи

Описание: 1960-е. Юг Алжира. Группа скрывающихся парашютистов внезапно сталкивается со злобными мистическими тварями — джиннами…
KinoPoisk.ru: 4.85
IMDb.com: 5.3/10

Раздача группы:Изображение

Изображение

Качество: BDRip 720p
Формат: MKV

Видео: MPEG4 Video (H264) 1280x544 25.00fps
Аудио: Dolby AC3 48000Hz 6ch



MediaInfo
General
Unique ID : 172213261861528165858316024760641671756 (0x818F115A4A55D3C892303A59888E524C)
Complete name : E:\Stranded.2010.P.BDRip.720p-UNIONGANG.mkv
Format : Matroska
File size : 5.76 GiB
Duration : 1h 39mn
Overall bit rate : 8 301 Kbps
Encoded date : UTC 2011-02-10 18:29:13
Writing application : mkvmerge v3.4.0 ('Rapunzel') сборка от May 15 2010 09:38:20
Writing library : libebml v0.8.0 + libmatroska v0.9.0

Video
ID : 1
Format : AVC
Format/Info : Advanced Video Codec
Format profile : High@L4.1
Format settings, CABAC : Yes
Format settings, ReFrames : 8 frames
Codec ID : V_MPEG4/ISO/AVC
Duration : 1h 39mn
Bit rate : 6 409 Kbps
Width : 1 280 pixels
Height : 544 pixels
Display aspect ratio : 2.35:1
Frame rate : 25.000 fps
Color space : YUV
Chroma subsampling : 4:2:0
Bit depth : 8 bits
Scan type : Progressive
Bits/(Pixel*Frame) : 0.368
Stream size : 4.33 GiB (75%)
Title : WiKi
Writing library : x264 core 98 r1649 c54c47d
Encoding settings : cabac=1 / ref=8 / deblock=1:-3:-3 / analyse=0x3:0x113 / me=umh / subme=9 / psy=1 / psy_rd=1.10:0.00 / mixed_ref=1 / me_range=32 / chroma_me=1 / trellis=2 / 8x8dct=1 / cqm=0 / deadzone=21,11 / fast_pskip=0 / chroma_qp_offset=-4 / threads=6 / sliced_threads=0 / nr=0 / decimate=0 / interlaced=0 / constrained_intra=0 / bframes=6 / b_pyramid=2 / b_adapt=2 / b_bias=0 / direct=3 / weightb=1 / weightp=2 / keyint=250 / keyint_min=25 / scenecut=40 / intra_refresh=0 / rc_lookahead=48 / rc=2pass / mbtree=1 / bitrate=6409 / ratetol=1.0 / qcomp=0.60 / qpmin=10 / qpmax=51 / qpstep=4 / cplxblur=20.0 / qblur=0.5 / ip_ratio=1.40 / aq=1:0.80
Language : English

Audio #1
ID : 2
Format : AC-3
Format/Info : Audio Coding 3
Mode extension : CM (complete main)
Codec ID : A_AC3
Duration : 1h 39mn
Bit rate mode : Constant
Bit rate : 384 Kbps
Channel(s) : 6 channels
Channel positions : Front: L C R, Side: L R, LFE
Sampling rate : 48.0 KHz
Bit depth : 16 bits
Compression mode : Lossy
Stream size : 273 MiB (5%)
Language : Russian

Audio #2
ID : 3
Format : DTS
Format/Info : Digital Theater Systems
Codec ID : A_DTS
Duration : 1h 39mn
Bit rate mode : Constant
Bit rate : 1 510 Kbps
Channel(s) : 6 channels
Channel positions : Front: L C R, Side: L R, LFE
Sampling rate : 48.0 KHz
Bit depth : 24 bits
Compression mode : Lossy
Stream size : 1.05 GiB (18%)
Language : French

Text
ID : 4
Format : UTF-8
Codec ID : S_TEXT/UTF8
Codec ID/Info : UTF-8 Plain Text
Language : Russian


Свернуть
"Скриншоты"
Изображение
Изображение
Изображение
Изображение
Изображение
Свернуть
Не в сети
Профиль  
 Добавлено: 2011-02-18 22:13 (спустя 6 дней)
Стаж: 7 лет 1 месяц
Сообщений: 6
перевод не многоголосый.2ух,мож трех :(
Не в сети
Профиль  
 Добавлено: 2011-02-19 12:59 (спустя 14 часов)
Модератор релиз-группы
Аватара пользователя
Стаж: 9 лет 1 месяц
Возраст: 97
Сообщений: 11659
Спасибок: 6532
Лайков: 269
что больше двух,уже многого.... :)
_________________
Изображение
Не в сети
Профиль  
Начать новую темуОтветить на тему  [ Сообщений: 3 ] 
Вы не можете начинать темы
Вы не можете отвечать на сообщения
Вы не можете редактировать свои сообщения
Вы не можете удалять свои сообщения