Правила форума

Здесь находятся раздачи, на которых не было полного источника (сида) более месяца.
Вы можете вернуть релиз в соответствующий раздел, для этого напишите нам в специальной теме и встаньте на раздачу.
Новые релизы, повторяющие релизы в архиве, повторами не считаются.
Начать новую темуОтветить на тему  [ Сообщений: 4 ] 
Сообщения
 Добавлено: 2012-05-23 20:54
Книголюб
Аватара пользователя
Стаж: 7 лет 2 месяца
Сообщений: 2823
Спасибок: 48823
Лайков: 73
Джон Картер
John Carter

Изображение


Год выпуска: 2012
Страна: США
Слоган: «В этом мире у каждого есть второй шанс»
Жанр: фантастика, фэнтези, боевик, приключения
Продолжительность: 01:56:34
Перевод: Профессиональный (дубляж) Чистый звук

Режиссёр: Эндрю Стэнтон

В ролях: Брайан Крэнстон, Марк Стронг, Киаран Хайндс, Тейлор Китч, Доминик Уэст, Уиллем Дефо, Дэрил Сабара, Джеймс Пьюрфой, Томас Хэйден Черч, Линн Коллинз, Саманта Мортон
Описание: Ветеран Гражданской войны в США Джон Картер против своей воли оказывается на Марсе, где попадает в плен к воинственным четырехметровым туземцам. Картеру предстоит не только спастись самому, но и спасти принцессу Дею Торис из Гелиума.
Рейтинг MPAA: Рейтинг PG-13 (Дети до 13 лет допускаются на фильм только с родителями)
Мировая премьера: 22 февраля 2012
Премьера в России: 8 марта 2012, «WDSSPR»
Бюджет: $250 000 000
Изображение 7.032 16 766

Качество: BDRip.720p
Формат: MKV
Видео кодек: H.264
Аудио кодек: AC3 (Dolby Digital)
Видео: 1280x534 (2.35), 23.976 fps, 4 961 Kbps 0.303Bits/Pixel
Аудио #1: AC-3, 48.0 KHz, 6 ch, 384 Kbps, CBR. Русский дубляж
Аудио #2: 48.0 KHz, 6 ch, 384 Kbps, CBR. Украинский дубляж
Аудио #3: DTS, 48.0 KHz, 6 ch, 1 510 Kbps, CBR. Оригинал
MediaInfo
General
Unique ID : 178742624221883570019639248919210739418 (0x867893C586294B099CEB7AB70847C6DA)
Complete name : K:\Torrent\Jaddak.Karter..mkv
Format : Matroska
Format version : Version 2
File size : 6.81 GiB
Duration : 2h 12mn
Overall bit rate : 7 388 Kbps
Movie name : Resident1948
Encoded date : UTC 2012-05-21 21:03:45
Writing application : mkvmerge v4.8.0 ('I Got The...') сборка от May 24 2011 03:12:58
Writing library : libebml v1.2.0 + libmatroska v1.1.0

Video
ID : 1
Format : AVC
Format/Info : Advanced Video Codec
Format profile : High@L4.1
Format settings, CABAC : Yes
Format settings, ReFrames : 12 frames
Muxing mode : Header stripping
Codec ID : V_MPEG4/ISO/AVC
Duration : 2h 12mn
Bit rate : 4 964 Kbps
Width : 1 280 pixels
Height : 534 pixels
Display aspect ratio : 2.40:1
Frame rate : 23.976 fps
Color space : YUV
Chroma subsampling : 4:2:0
Bit depth : 8 bits
Scan type : Progressive
Bits/(Pixel*Frame) : 0.303
Stream size : 4.58 GiB (67%)
Writing library : x264 core 124 r2197 69a0443
Encoding settings : cabac=1 / ref=12 / deblock=1:-3:-3 / analyse=0x3:0x113 / me=umh / subme=11 / psy=1 / psy_rd=1.05:0.05 / mixed_ref=1 / me_range=24 / chroma_me=1 / trellis=2 / 8x8dct=1 / cqm=0 / deadzone=21,11 / fast_pskip=0 / chroma_qp_offset=-3 / threads=12 / sliced_threads=0 / nr=0 / decimate=0 / interlaced=0 / bluray_compat=0 / constrained_intra=0 / bframes=7 / b_pyramid=2 / b_adapt=1 / b_bias=0 / direct=1 / weightb=1 / open_gop=0 / weightp=2 / keyint=250 / keyint_min=23 / scenecut=40 / intra_refresh=0 / rc_lookahead=150 / rc=crf / mbtree=1 / crf=17.3 / qcomp=0.60 / qpmin=0 / qpmax=69 / qpstep=4 / ip_ratio=1.40 / aq=1:1.05
Language : English
Default : No
Forced : No

Audio #1
ID : 2
Format : AC-3
Format/Info : Audio Coding 3
Mode extension : CM (complete main)
Muxing mode : Header stripping
Codec ID : A_AC3
Duration : 2h 12mn
Bit rate mode : Constant
Bit rate : 384 Kbps
Channel(s) : 6 channels
Channel positions : Front: L C R, Side: L R, LFE
Sampling rate : 48.0 KHz
Bit depth : 16 bits
Compression mode : Lossy
Stream size : 363 MiB (5%)
Title : Russian @ DD 5.1 @ 384 kbps
Language : Russian
Default : Yes
Forced : No

Audio #2
ID : 3
Format : AC-3
Format/Info : Audio Coding 3
Mode extension : CM (complete main)
Muxing mode : Header stripping
Codec ID : A_AC3
Duration : 2h 12mn
Bit rate mode : Constant
Bit rate : 384 Kbps
Channel(s) : 2 channels
Channel positions : Front: L R
Sampling rate : 48.0 KHz
Bit depth : 16 bits
Compression mode : Lossy
Stream size : 363 MiB (5%)
Title : Ukrainian @ DD 5.1 @ 384 kbps
Language : Ukrainian
Default : No
Forced : No

Audio #3
ID : 4
Format : DTS
Format/Info : Digital Theater Systems
Muxing mode : Header stripping
Codec ID : A_DTS
Duration : 2h 12mn
Bit rate mode : Constant
Bit rate : 1 510 Kbps
Channel(s) : 6 channels
Channel positions : Front: L C R, Side: L R, LFE
Sampling rate : 48.0 KHz
Bit depth : 24 bits
Compression mode : Lossy
Delay relative to video : 11ms
Stream size : 1.39 GiB (20%)
Title : English @ DTS 5.1 @ 1510 kbps
Language : English
Default : No
Forced : No

Text #1
ID : 5
Format : UTF-8
Codec ID : S_TEXT/UTF8
Codec ID/Info : UTF-8 Plain Text
Title : Russian (Forced)
Language : Russian
Default : Yes
Forced : Yes

Text #2
ID : 6
Format : UTF-8
Codec ID : S_TEXT/UTF8
Codec ID/Info : UTF-8 Plain Text
Title : English (Forced)
Language : English
Default : No
Forced : No

Text #3
ID : 7
Format : UTF-8
Codec ID : S_TEXT/UTF8
Codec ID/Info : UTF-8 Plain Text
Title : English
Language : English
Default : No
Forced : No

Menu
00:00:00.000 : en:00:00:00.000
00:04:01.241 : en:00:04:01.241
00:10:22.914 : en:00:10:22.914
00:20:08.791 : en:00:20:08.791
00:27:05.207 : en:00:27:05.207
00:37:29.164 : en:00:37:29.164
00:47:43.569 : en:00:47:43.569
00:58:51.653 : en:00:58:51.653
01:07:42.433 : en:01:07:42.433
01:15:01.038 : en:01:15:01.038
01:22:34.199 : en:01:22:34.199
01:30:29.799 : en:01:30:29.799
01:37:02.066 : en:01:37:02.066
01:46:52.031 : en:01:46:52.031
01:53:48.989 : en:01:53:48.989
02:02:54.534 : en:02:02:54.534


Свернуть

Скриншоты
Изображение
Изображение
Изображение
Свернуть
Не в сети
Профиль  
 Добавлено: 2012-05-23 21:33 (спустя 38 минут)
Аватара пользователя
Стаж: 4 года 7 месяцев
Сообщений: 15
Лайков: 1
Заценим :)
Не в сети
Профиль  
 Добавлено: 2012-05-24 08:38 (спустя 11 часов)
Стаж: 7 лет
Сообщений: 54
Лайков: 1
:bra_vo: :dan_ser: - давно ждал релиза хорошего!!!!! Надеюсь раздача будет!!!!
Не в сети
Профиль  
 Добавлено: 2012-05-27 20:34 (спустя 3 дня)
Руководитель релиз-группы
Аватара пользователя
Стаж: 7 лет 4 месяца
Возраст: 31
Сообщений: 3407
Спасибок: 46728
Лайков: 5
viewtopic.php?f=1750&t=468475
Не в сети
Профиль  
Начать новую темуОтветить на тему  [ Сообщений: 4 ] 
Вы не можете начинать темы
Вы не можете отвечать на сообщения
Вы не можете редактировать свои сообщения
Вы не можете удалять свои сообщения